999
dxfrw 0.6.3
  0
SECTION
  2
HEADER
  9
$ACADVER
  1
AC1021
  9
$DWGCODEPAGE
  3
ANSI_1252
  9
$INSBASE
 10
0
 20
0
 30
0
  9
$EXTMIN
 10
0
 20
-240
 30
0
  9
$EXTMAX
 10
228.9862336094789
 20
100
 30
0
  9
$LIMMIN
 10
0
 20
0
  9
$LIMMAX
 10
420
 20
297
  9
$ORTHOMODE
 70
    0
  9
$REGENMODE
 70
    1
  9
$FILLMODE
 70
    1
  9
$QTEXTMODE
 70
    0
  9
$MIRRTEXT
 70
    0
  9
$LTSCALE
 40
1
  9
$ATTMODE
 70
    0
  9
$TEXTSIZE
 40
2.5
  9
$TRACEWID
 40
15.68
  9
$TEXTSTYLE
  7
STANDARD
  9
$CLAYER
  8
COTAS
  9
$CELTYPE
  6
BYLAYER
  9
$CECOLOR
 62
  256
  9
$CELTSCALE
 40
1
  9
$DISPSILH
 70
    0
  9
$DIMSCALE
 40
2.5
  9
$DIMASZ
 40
2.5
  9
$DIMEXO
 40
0.625
  9
$DIMDLI
 40
3.75
  9
$DIMRND
 40
0
  9
$DIMDLE
 40
0
  9
$DIMEXE
 40
1.25
  9
$DIMTP
 40
0
  9
$DIMTM
 40
0
  9
$DIMTXT
 40
2.5
  9
$DIMCEN
 40
2.5
  9
$DIMTSZ
 40
0
  9
$DIMTOL
 70
    0
  9
$DIMLIM
 70
    0
  9
$DIMTIH
 70
    0
  9
$DIMTOH
 70
    0
  9
$DIMSE1
 70
    0
  9
$DIMSE2
 70
    0
  9
$DIMTAD
 70
    1
  9
$DIMZIN
 70
    8
  9
$DIMBLK
  1

  9
$DIMASO
 70
    1
  9
$DIMSHO
 70
    1
  9
$DIMPOST
  1

  9
$DIMAPOST
  1

  9
$DIMALT
 70
    0
  9
$DIMALTD
 70
    3
  9
$DIMALTF
 40
0.03937
  9
$DIMLFAC
 40
1
  9
$DIMTOFL
 70
    1
  9
$DIMTVP
 40
0
  9
$DIMTIX
 70
    0
  9
$DIMSOXD
 70
    0
  9
$DIMSAH
 70
    0
  9
$DIMBLK1
  1

  9
$DIMBLK2
  1

  9
$DIMSTYLE
  2
STANDARD
  9
$DIMCLRD
 70
    0
  9
$DIMCLRE
 70
    0
  9
$DIMCLRT
 70
    0
  9
$DIMTFAC
 40
1
  9
$DIMGAP
 40
0.625
  9
$DIMJUST
 70
    0
  9
$DIMSD1
 70
    0
  9
$DIMSD2
 70
    0
  9
$DIMTOLJ
 70
    0
  9
$DIMTZIN
 70
    8
  9
$DIMALTZ
 70
    0
  9
$DIMALTTZ
 70
    0
  9
$DIMUPT
 70
    0
  9
$DIMDEC
 70
    1
  9
$DIMTDEC
 70
    2
  9
$DIMALTU
 70
    2
  9
$DIMALTTD
 70
    3
  9
$DIMTXSTY
  7
standard
  9
$DIMAUNIT
 70
    0
  9
$DIMADEC
 70
    0
  9
$DIMALTRND
 40
0
  9
$DIMAZIN
 70
    0
  9
$DIMDSEP
 70
   44
  9
$DIMATFIT
 70
    3
  9
$DIMFRAC
 70
    0
  9
$DIMLDRBLK
  1
STANDARD
  9
$DIMLUNIT
 70
    2
  9
$DIMLWD
 70
   -2
  9
$DIMLWE
 70
   -2
  9
$DIMTMOVE
 70
    0
  9
$DIMFXL
 40
1
  9
$DIMFXLON
 70
    0
  9
$DIMJOGANG
 40
0.7854
  9
$DIMTFILL
 70
    0
  9
$DIMTFILLCLR
 70
    0
  9
$DIMARCSYM
 70
    0
  9
$DIMLTYPE
  6

  9
$DIMLTEX1
  6

  9
$DIMLTEX2
  6

  9
$LUNITS
 70
    2
  9
$LUPREC
 70
    4
  9
$SKETCHINC
 40
1
  9
$FILLETRAD
 40
0
  9
$AUNITS
 70
    0
  9
$AUPREC
 70
    2
  9
$MENU
  1
.
  9
$ELEVATION
 40
0
  9
$PELEVATION
 40
0
  9
$THICKNESS
 40
0
  9
$LIMCHECK
 70
    0
  9
$CHAMFERA
 40
0
  9
$CHAMFERB
 40
0
  9
$CHAMFERC
 40
0
  9
$CHAMFERD
 40
0
  9
$SKPOLY
 70
    0
  9
$USRTIMER
 70
    1
  9
$ANGBASE
 50
0
  9
$ANGDIR
 70
    0
  9
$PDMODE
 70
   34
  9
$PDSIZE
 40
0
  9
$PLINEWID
 40
0
  9
$SPLFRAME
 70
    0
  9
$SPLINETYPE
 70
    2
  9
$SPLINESEGS
 70
    8
  9
$HANDSEED
  5
20000
  9
$SURFTAB1
 70
    6
  9
$SURFTAB2
 70
    6
  9
$SURFTYPE
 70
    6
  9
$SURFU
 70
    6
  9
$SURFV
 70
    6
  9
$UCSBASE
  2

  9
$UCSNAME
  2

  9
$UCSORG
 10
0
 20
0
 30
0
  9
$UCSXDIR
 10
1
 20
0
 30
0
  9
$UCSYDIR
 10
0
 20
1
 30
0
  9
$UCSORTHOREF
  2

  9
$UCSORTHOVIEW
 70
    0
  9
$UCSORGTOP
 10
0
 20
0
 30
0
  9
$UCSORGBOTTOM
 10
0
 20
0
 30
0
  9
$UCSORGLEFT
 10
0
 20
0
 30
0
  9
$UCSORGRIGHT
 10
0
 20
0
 30
0
  9
$UCSORGFRONT
 10
0
 20
0
 30
0
  9
$UCSORGBACK
 10
0
 20
0
 30
0
  9
$PUCSBASE
  2

  9
$PUCSNAME
  2

  9
$PUCSORG
 10
0
 20
0
 30
0
  9
$PUCSXDIR
 10
1
 20
0
 30
0
  9
$PUCSYDIR
 10
0
 20
1
 30
0
  9
$PUCSORTHOREF
  2

  9
$PUCSORTHOVIEW
 70
    0
  9
$PUCSORGTOP
 10
0
 20
0
 30
0
  9
$PUCSORGBOTTOM
 10
0
 20
0
 30
0
  9
$PUCSORGLEFT
 10
0
 20
0
 30
0
  9
$PUCSORGRIGHT
 10
0
 20
0
 30
0
  9
$PUCSORGFRONT
 10
0
 20
0
 30
0
  9
$PUCSORGBACK
 10
0
 20
0
 30
0
  9
$USERI1
 70
    0
  9
$USERI2
 70
    0
  9
$USERI3
 70
    0
  9
$USERI4
 70
    0
  9
$USERI5
 70
    0
  9
$USERR1
 40
0
  9
$USERR2
 40
0
  9
$USERR3
 40
0
  9
$USERR4
 40
0
  9
$USERR5
 40
0
  9
$WORLDVIEW
 70
    1
  9
$SHADEDGE
 70
    3
  9
$SHADEDIF
 70
   70
  9
$TILEMODE
 70
    1
  9
$MAXACTVP
 70
   64
  9
$PINSBASE
 10
0
 20
0
 30
0
  9
$PLIMCHECK
 70
    0
  9
$PEXTMIN
 10
0
 20
0
 30
0
  9
$PEXTMAX
 10
0
 20
0
 30
0
  9
$GRIDMODE
 70
    1
  9
$SNAPSTYLE
 70
    0
  9
$GRIDUNIT
 10
0
 20
0
  9
$PLIMMIN
 10
0
 20
0
  9
$PLIMMAX
 10
210
 20
297
  9
$UNITMODE
 70
    0
  9
$VISRETAIN
 70
    1
  9
$PLINEGEN
 70
    0
  9
$PSLTSCALE
 70
    1
  9
$TREEDEPTH
 70
 3020
  9
$CMLSTYLE
  2
Standard
  9
$CMLJUST
 70
    0
  9
$CMLSCALE
 40
20
  9
$PROXYGRAPHICS
 70
    1
  9
$MEASUREMENT
 70
    1
  9
$CELWEIGHT
370
   -1
  9
$ENDCAPS
280
    0
  9
$JOINSTYLE
280
    0
  9
$LWDISPLAY
290
    0
  9
$INSUNITS
 70
    0
  9
$HYPERLINKBASE
  1

  9
$STYLESHEET
  1

  9
$XEDIT
290
    1
  9
$CEPSNTYPE
380
    0
  9
$PSTYLEMODE
290
    1
  9
$EXTNAMES
290
    1
  9
$PSVPSCALE
 40
1
  9
$OLESTARTUP
290
    0
  9
$SORTENTS
280
  127
  9
$INDEXCTL
280
    0
  9
$HIDETEXT
280
    1
  9
$XCLIPFRAME
290
    0
  9
$HALOGAP
280
    0
  9
$OBSCOLOR
 70
  257
  9
$OBSLTYPE
280
    0
  9
$INTERSECTIONDISPLAY
280
    0
  9
$INTERSECTIONCOLOR
 70
  257
  9
$DIMASSOC
280
    1
  9
$PROJECTNAME
  1

  9
$CAMERADISPLAY
290
    0
  9
$LENSLENGTH
 40
50
  9
$CAMERAHEIGHT
 40
0
  9
$STEPSPERSEC
 40
2
  9
$STEPSIZE
 40
50
  9
$3DDWFPREC
 40
2
  9
$PSOLWIDTH
 40
5
  9
$PSOLHEIGHT
 40
80
  9
$LOFTANG1
 40
1.570796326794897
  9
$LOFTANG2
 40
1.570796326794897
  9
$LOFTMAG1
 40
0
  9
$LOFTMAG2
 40
0
  9
$LOFTPARAM
 70
    7
  9
$LOFTNORMALS
280
    1
  9
$LATITUDE
 40
1
  9
$LONGITUDE
 40
1
  9
$NORTHDIRECTION
 40
0
  9
$TIMEZONE
 70
-8000
  9
$LIGHTGLYPHDISPLAY
280
    1
  9
$TILEMODELIGHTSYNCH
280
    1
  9
$SOLIDHIST
280
    1
  9
$SHOWHIST
280
    1
  9
$DWFFRAME
280
    2
  9
$DGNFRAME
280
    0
  9
$REALWORLDSCALE
290
    1
  9
$INTERFERECOLOR
 62
    1
  9
$CSHADOW
280
    0
  9
$SHADOWPLANELOCATION
 40
0
  0
ENDSEC
  0
SECTION
  2
CLASSES
  0
ENDSEC
  0
SECTION
  2
TABLES
  0
TABLE
  2
VPORT
  5
8
330
0
100
AcDbSymbolTable
 70
    1
  0
VPORT
  5
31
330
2
100
AcDbSymbolTableRecord
100
AcDbViewportTableRecord
  2
*ACTIVE
 70
    0
 10
0
 20
0
 11
1
 21
1
 12
248.7343532684284
 22
52.48956884561891
 13
0
 23
0
 14
10
 24
10
 15
10
 25
10
 16
0
 26
0
 36
1
 17
0
 27
0
 37
0
 40
349.4575799721836
 41
2.190798376184032
 42
50
 43
0
 44
0
 50
0
 51
0
 71
    0
 72
  100
 73
    1
 74
    3
 75
    0
 76
    1
 77
    0
 78
    0
281
    0
 65
    1
110
0
120
0
130
0
111
1
121
0
131
0
112
0
122
1
132
0
 79
    0
146
0
348
10020
 60
    7
 61
    5
292
1
282
    1
141
0
142
0
 63
  250
421
3358443
  0
ENDTAB
  0
TABLE
  2
LTYPE
  5
5
330
0
100
AcDbSymbolTable
 70
    4
  0
LTYPE
  5
14
330
5
100
AcDbSymbolTableRecord
100
AcDbLinetypeTableRecord
  2
ByBlock
 70
    0
  3

 72
   65
 73
    0
 40
0
  0
LTYPE
  5
15
330
5
100
AcDbSymbolTableRecord
100
AcDbLinetypeTableRecord
  2
ByLayer
 70
    0
  3

 72
   65
 73
    0
 40
0
  0
LTYPE
  5
16
330
5
100
AcDbSymbolTableRecord
100
AcDbLinetypeTableRecord
  2
Continuous
 70
    0
  3
Solid line
 72
   65
 73
    0
 40
0
  0
LTYPE
  5
32
330
5
100
AcDbSymbolTableRecord
100
AcDbLinetypeTableRecord
  2
DOT
 70
    0
  3
Dot . . . . . . . . . . . . . . . . . . . . . .
 72
   65
 73
    2
 40
6.35
 49
0
 74
    0
 49
-6.35
 74
    0
  0
LTYPE
  5
33
330
5
100
AcDbSymbolTableRecord
100
AcDbLinetypeTableRecord
  2
DOTTINY
 70
    0
  3
Dot (.15x) .....................................
 72
   65
 73
    2
 40
0.9525
 49
0
 74
    0
 49
-0.9525
 74
    0
  0
LTYPE
  5
34
330
5
100
AcDbSymbolTableRecord
100
AcDbLinetypeTableRecord
  2
DOT2
 70
    0
  3
Dot (.5x) .....................................
 72
   65
 73
    2
 40
3.175
 49
0
 74
    0
 49
-3.175
 74
    0
  0
LTYPE
  5
35
330
5
100
AcDbSymbolTableRecord
100
AcDbLinetypeTableRecord
  2
DOTX2
 70
    0
  3
Dot (2x) .  .  .  .  .  .  .  .  .  .  .  .  .
 72
   65
 73
    2
 40
12.7
 49
0
 74
    0
 49
-12.7
 74
    0
  0
LTYPE
  5
36
330
5
100
AcDbSymbolTableRecord
100
AcDbLinetypeTableRecord
  2
DASHED
 70
    0
  3
Dashed _ _ _ _ _ _ _ _ _ _ _ _ _ _ _ _ _
 72
   65
 73
    2
 40
19.05
 49
12.7
 74
    0
 49
-6.35
 74
    0
  0
LTYPE
  5
37
330
5
100
AcDbSymbolTableRecord
100
AcDbLinetypeTableRecord
  2
DASHEDTINY
 70
    0
  3
Dashed (.15x) _ _ _ _ _ _ _ _ _ _ _ _ _ _ _ _ _
 72
   65
 73
    2
 40
2.8575
 49
1.905
 74
    0
 49
-0.9525
 74
    0
  0
LTYPE
  5
38
330
5
100
AcDbSymbolTableRecord
100
AcDbLinetypeTableRecord
  2
DASHED2
 70
    0
  3
Dashed (.5x) _ _ _ _ _ _ _ _ _ _ _ _ _ _ _ _ _
 72
   65
 73
    2
 40
9.524999999999999
 49
6.35
 74
    0
 49
-3.175
 74
    0
  0
LTYPE
  5
39
330
5
100
AcDbSymbolTableRecord
100
AcDbLinetypeTableRecord
  2
DASHEDX2
 70
    0
  3
Dashed (2x) ____  ____  ____  ____  ____  ___
 72
   65
 73
    2
 40
38.09999999999999
 49
25.4
 74
    0
 49
-12.7
 74
    0
  0
LTYPE
  5
3A
330
5
100
AcDbSymbolTableRecord
100
AcDbLinetypeTableRecord
  2
DASHDOT
 70
    0
  3
Dash dot __ . __ . __ . __ . __ . __ . __ . __
 72
   65
 73
    4
 40
25.4
 49
12.7
 74
    0
 49
-6.35
 74
    0
 49
0
 74
    0
 49
-6.35
 74
    0
  0
LTYPE
  5
3B
330
5
100
AcDbSymbolTableRecord
100
AcDbLinetypeTableRecord
  2
DASHDOTTINY
 70
    0
  3
Dash dot (.15x) _._._._._._._._._._._._._._._.
 72
   65
 73
    4
 40
3.81
 49
1.905
 74
    0
 49
-0.9525
 74
    0
 49
0
 74
    0
 49
-0.9525
 74
    0
  0
LTYPE
  5
3C
330
5
100
AcDbSymbolTableRecord
100
AcDbLinetypeTableRecord
  2
DASHDOT2
 70
    0
  3
Dash dot (.5x) _._._._._._._._._._._._._._._.
 72
   65
 73
    4
 40
12.7
 49
6.35
 74
    0
 49
-3.175
 74
    0
 49
0
 74
    0
 49
-3.175
 74
    0
  0
LTYPE
  5
3D
330
5
100
AcDbSymbolTableRecord
100
AcDbLinetypeTableRecord
  2
DASHDOTX2
 70
    0
  3
Dash dot (2x) ____  .  ____  .  ____  .  ___
 72
   65
 73
    4
 40
50.8
 49
25.4
 74
    0
 49
-12.7
 74
    0
 49
0
 74
    0
 49
-12.7
 74
    0
  0
LTYPE
  5
3E
330
5
100
AcDbSymbolTableRecord
100
AcDbLinetypeTableRecord
  2
DIVIDE
 70
    0
  3
Divide ____ . . ____ . . ____ . . ____ . . ____
 72
   65
 73
    6
 40
31.75
 49
12.7
 74
    0
 49
-6.35
 74
    0
 49
0
 74
    0
 49
-6.35
 74
    0
 49
0
 74
    0
 49
-6.35
 74
    0
  0
LTYPE
  5
3F
330
5
100
AcDbSymbolTableRecord
100
AcDbLinetypeTableRecord
  2
DIVIDETINY
 70
    0
  3
Divide (.15x) __..__..__..__..__..__..__..__.._
 72
   65
 73
    6
 40
4.7625
 49
1.905
 74
    0
 49
-0.9525
 74
    0
 49
0
 74
    0
 49
-0.9525
 74
    0
 49
0
 74
    0
 49
-0.9525
 74
    0
  0
LTYPE
  5
40
330
5
100
AcDbSymbolTableRecord
100
AcDbLinetypeTableRecord
  2
DIVIDE2
 70
    0
  3
Divide (.5x) __..__..__..__..__..__..__..__.._
 72
   65
 73
    6
 40
15.875
 49
6.35
 74
    0
 49
-3.175
 74
    0
 49
0
 74
    0
 49
-3.175
 74
    0
 49
0
 74
    0
 49
-3.175
 74
    0
  0
LTYPE
  5
41
330
5
100
AcDbSymbolTableRecord
100
AcDbLinetypeTableRecord
  2
DIVIDEX2
 70
    0
  3
Divide (2x) ________  .  .  ________  .  .  _
 72
   65
 73
    6
 40
63.5
 49
25.4
 74
    0
 49
-12.7
 74
    0
 49
0
 74
    0
 49
-12.7
 74
    0
 49
0
 74
    0
 49
-12.7
 74
    0
  0
LTYPE
  5
42
330
5
100
AcDbSymbolTableRecord
100
AcDbLinetypeTableRecord
  2
BORDER
 70
    0
  3
Border __ __ . __ __ . __ __ . __ __ . __ __ .
 72
   65
 73
    6
 40
44.45
 49
12.7
 74
    0
 49
-6.35
 74
    0
 49
12.7
 74
    0
 49
-6.35
 74
    0
 49
0
 74
    0
 49
-6.35
 74
    0
  0
LTYPE
  5
43
330
5
100
AcDbSymbolTableRecord
100
AcDbLinetypeTableRecord
  2
BORDERTINY
 70
    0
  3
Border (.15x) __.__.__.__.__.__.__.__.__.__.__.
 72
   65
 73
    6
 40
6.6675
 49
1.905
 74
    0
 49
-0.9525
 74
    0
 49
1.905
 74
    0
 49
-0.9525
 74
    0
 49
0
 74
    0
 49
-0.9525
 74
    0
  0
LTYPE
  5
44
330
5
100
AcDbSymbolTableRecord
100
AcDbLinetypeTableRecord
  2
BORDER2
 70
    0
  3
Border (.5x) __.__.__.__.__.__.__.__.__.__.__.
 72
   65
 73
    6
 40
22.225
 49
6.35
 74
    0
 49
-3.175
 74
    0
 49
6.35
 74
    0
 49
-3.175
 74
    0
 49
0
 74
    0
 49
-3.175
 74
    0
  0
LTYPE
  5
45
330
5
100
AcDbSymbolTableRecord
100
AcDbLinetypeTableRecord
  2
BORDERX2
 70
    0
  3
Border (2x) ____  ____  .  ____  ____  .  ___
 72
   65
 73
    6
 40
88.89999999999999
 49
25.4
 74
    0
 49
-12.7
 74
    0
 49
25.4
 74
    0
 49
-12.7
 74
    0
 49
0
 74
    0
 49
-12.7
 74
    0
  0
LTYPE
  5
46
330
5
100
AcDbSymbolTableRecord
100
AcDbLinetypeTableRecord
  2
CENTER
 70
    0
  3
Center ____ _ ____ _ ____ _ ____ _ ____ _ ____
 72
   65
 73
    4
 40
50.8
 49
31.75
 74
    0
 49
-6.35
 74
    0
 49
6.35
 74
    0
 49
-6.35
 74
    0
  0
LTYPE
  5
47
330
5
100
AcDbSymbolTableRecord
100
AcDbLinetypeTableRecord
  2
CENTERTINY
 70
    0
  3
Center (.15x) ___ _ ___ _ ___ _ ___ _ ___ _ ___
 72
   65
 73
    4
 40
7.619999999999999
 49
4.7625
 74
    0
 49
-0.9525
 74
    0
 49
0.9525
 74
    0
 49
-0.9525
 74
    0
  0
LTYPE
  5
48
330
5
100
AcDbSymbolTableRecord
100
AcDbLinetypeTableRecord
  2
CENTER2
 70
    0
  3
Center (.5x) ___ _ ___ _ ___ _ ___ _ ___ _ ___
 72
   65
 73
    4
 40
28.575
 49
19.05
 74
    0
 49
-3.175
 74
    0
 49
3.175
 74
    0
 49
-3.175
 74
    0
  0
LTYPE
  5
49
330
5
100
AcDbSymbolTableRecord
100
AcDbLinetypeTableRecord
  2
CENTERX2
 70
    0
  3
Center (2x) ________  __  ________  __  _____
 72
   65
 73
    4
 40
101.6
 49
63.5
 74
    0
 49
-12.7
 74
    0
 49
12.7
 74
    0
 49
-12.7
 74
    0
  0
ENDTAB
  0
TABLE
  2
LAYER
  5
2
330
0
100
AcDbSymbolTable
 70
    1
  0
LAYER
  5
10
330
2
100
AcDbSymbolTableRecord
100
AcDbLayerTableRecord
  2
0
 70
    1
 62
    6
  6
CONTINUOUS
370
   20
390
F
  0
LAYER
  5
4A
330
2
100
AcDbSymbolTableRecord
100
AcDbLayerTableRecord
  2
CORTAR
 70
    0
 62
    1
  6
CONTINUOUS
370
   20
390
F
  0
LAYER
  5
4B
330
2
100
AcDbSymbolTableRecord
100
AcDbLayerTableRecord
  2
COTAS
 70
    0
 62
    2
  6
CONTINUOUS
370
    5
390
F
  0
LAYER
  5
4C
330
2
100
AcDbSymbolTableRecord
100
AcDbLayerTableRecord
  2
GRABAR
 70
    0
 62
    5
  6
CONTINUOUS
370
   20
390
F
  0
ENDTAB
  0
TABLE
  2
STYLE
  5
3
330
0
100
AcDbSymbolTable
 70
    3
  0
STYLE
  5
4D
330
2
100
AcDbSymbolTableRecord
100
AcDbTextStyleTableRecord
  2
Standard
 70
    0
 40
0
 41
1
 50
0
 71
    0
 42
1
  3
txt
  4

  0
ENDTAB
  0
TABLE
  2
VIEW
  5
6
330
0
100
AcDbSymbolTable
 70
    0
  0
ENDTAB
  0
TABLE
  2
UCS
  5
7
330
0
100
AcDbSymbolTable
 70
    0
  0
ENDTAB
  0
TABLE
  2
APPID
  5
9
330
0
100
AcDbSymbolTable
 70
    1
  0
APPID
  5
12
330
9
100
AcDbSymbolTableRecord
100
AcDbRegAppTableRecord
  2
ACAD
 70
    0
  0
APPID
  5
4E
330
9
100
AcDbSymbolTableRecord
100
AcDbRegAppTableRecord
  2
LibreCad
 70
    0
  0
ENDTAB
  0
TABLE
  2
DIMSTYLE
  5
A
330
0
100
AcDbSymbolTable
 70
    1
100
AcDbDimStyleTable
 71
    1
  0
DIMSTYLE
105
4F
330
A
100
AcDbSymbolTableRecord
100
AcDbDimStyleTableRecord
  2
Standard
 70
    0
 40
2.5
 41
2.5
 42
0.625
 43
0.38
 44
1.25
 45
0
 46
0
 47
0
 48
0
 49
1
140
2.5
141
0.09
142
0
143
25.4
144
1
145
0
146
1
147
0.625
148
0
 71
    0
 72
    0
 73
    0
 74
    1
 75
    0
 76
    0
 77
    0
 78
    8
 79
    0
170
    0
171
    2
172
    0
173
    0
174
    0
175
    0
176
    0
177
    0
178
    0
179
    0
271
    1
272
    4
273
    2
274
    2
275
    0
276
    0
277
    2
278
   44
279
    0
280
    0
281
    0
282
    0
283
    1
284
    0
285
    0
286
    0
288
    0
289
    3
340
standard
341

371
   -2
372
   -2
  0
ENDTAB
  0
TABLE
  2
BLOCK_RECORD
  5
1
330
0
100
AcDbSymbolTable
 70
    2
  0
BLOCK_RECORD
  5
1F
330
1
100
AcDbSymbolTableRecord
100
AcDbBlockTableRecord
  2
*Model_Space
 70
    0
280
    1
281
    0
  0
BLOCK_RECORD
  5
1E
330
1
100
AcDbSymbolTableRecord
100
AcDbBlockTableRecord
  2
*Paper_Space
 70
    0
280
    1
281
    0
  0
BLOCK_RECORD
  5
50
330
1
100
AcDbSymbolTableRecord
100
AcDbBlockTableRecord
  2
*D17
 70
    0
280
    1
281
    0
  0
BLOCK_RECORD
  5
53
330
1
100
AcDbSymbolTableRecord
100
AcDbBlockTableRecord
  2
*D14
 70
    0
280
    1
281
    0
  0
BLOCK_RECORD
  5
56
330
1
100
AcDbSymbolTableRecord
100
AcDbBlockTableRecord
  2
*D23
 70
    0
280
    1
281
    0
  0
BLOCK_RECORD
  5
59
330
1
100
AcDbSymbolTableRecord
100
AcDbBlockTableRecord
  2
*D6
 70
    0
280
    1
281
    0
  0
BLOCK_RECORD
  5
5C
330
1
100
AcDbSymbolTableRecord
100
AcDbBlockTableRecord
  2
*D9
 70
    0
280
    1
281
    0
  0
BLOCK_RECORD
  5
5F
330
1
100
AcDbSymbolTableRecord
100
AcDbBlockTableRecord
  2
*D22
 70
    0
280
    1
281
    0
  0
BLOCK_RECORD
  5
62
330
1
100
AcDbSymbolTableRecord
100
AcDbBlockTableRecord
  2
*D16
 70
    0
280
    1
281
    0
  0
BLOCK_RECORD
  5
65
330
1
100
AcDbSymbolTableRecord
100
AcDbBlockTableRecord
  2
*D5
 70
    0
280
    1
281
    0
  0
BLOCK_RECORD
  5
68
330
1
100
AcDbSymbolTableRecord
100
AcDbBlockTableRecord
  2
*D10
 70
    0
280
    1
281
    0
  0
BLOCK_RECORD
  5
6B
330
1
100
AcDbSymbolTableRecord
100
AcDbBlockTableRecord
  2
*D7
 70
    0
280
    1
281
    0
  0
BLOCK_RECORD
  5
6E
330
1
100
AcDbSymbolTableRecord
100
AcDbBlockTableRecord
  2
*D19
 70
    0
280
    1
281
    0
  0
BLOCK_RECORD
  5
71
330
1
100
AcDbSymbolTableRecord
100
AcDbBlockTableRecord
  2
*D4
 70
    0
280
    1
281
    0
  0
BLOCK_RECORD
  5
74
330
1
100
AcDbSymbolTableRecord
100
AcDbBlockTableRecord
  2
*D20
 70
    0
280
    1
281
    0
  0
BLOCK_RECORD
  5
77
330
1
100
AcDbSymbolTableRecord
100
AcDbBlockTableRecord
  2
*D1
 70
    0
280
    1
281
    0
  0
BLOCK_RECORD
  5
7A
330
1
100
AcDbSymbolTableRecord
100
AcDbBlockTableRecord
  2
*D13
 70
    0
280
    1
281
    0
  0
BLOCK_RECORD
  5
7D
330
1
100
AcDbSymbolTableRecord
100
AcDbBlockTableRecord
  2
*D8
 70
    0
280
    1
281
    0
  0
BLOCK_RECORD
  5
80
330
1
100
AcDbSymbolTableRecord
100
AcDbBlockTableRecord
  2
*D3
 70
    0
280
    1
281
    0
  0
BLOCK_RECORD
  5
83
330
1
100
AcDbSymbolTableRecord
100
AcDbBlockTableRecord
  2
*D18
 70
    0
280
    1
281
    0
  0
BLOCK_RECORD
  5
86
330
1
100
AcDbSymbolTableRecord
100
AcDbBlockTableRecord
  2
*D21
 70
    0
280
    1
281
    0
  0
BLOCK_RECORD
  5
89
330
1
100
AcDbSymbolTableRecord
100
AcDbBlockTableRecord
  2
*D24
 70
    0
280
    1
281
    0
  0
BLOCK_RECORD
  5
8C
330
1
100
AcDbSymbolTableRecord
100
AcDbBlockTableRecord
  2
*D15
 70
    0
280
    1
281
    0
  0
BLOCK_RECORD
  5
8F
330
1
100
AcDbSymbolTableRecord
100
AcDbBlockTableRecord
  2
*D12
 70
    0
280
    1
281
    0
  0
BLOCK_RECORD
  5
92
330
1
100
AcDbSymbolTableRecord
100
AcDbBlockTableRecord
  2
*D11
 70
    0
280
    1
281
    0
  0
BLOCK_RECORD
  5
95
330
1
100
AcDbSymbolTableRecord
100
AcDbBlockTableRecord
  2
*D2
 70
    0
280
    1
281
    0
  0
ENDTAB
  0
ENDSEC
  0
SECTION
  2
BLOCKS
  0
BLOCK
  5
20
330
1F
100
AcDbEntity
  8
0
100
AcDbBlockBegin
  2
*Model_Space
 70
    0
 10
0
 20
0
 30
0
  3
*Model_Space
  1

  0
ENDBLK
  5
21
330
1F
100
AcDbEntity
  8
0
100
AcDbBlockEnd
  0
BLOCK
  5
1C
330
1B
100
AcDbEntity
  8
0
100
AcDbBlockBegin
  2
*Paper_Space
 70
    0
 10
0
 20
0
 30
0
  3
*Paper_Space
  1

  0
ENDBLK
  5
1D
330
1F
100
AcDbEntity
  8
0
100
AcDbBlockEnd
  0
BLOCK
  5
51
330
50
100
AcDbEntity
  8
0
100
AcDbBlockBegin
  2
*D17
 70
    1
 10
0
 20
0
  3
*D17
  1

  0
SOLID
  5
98
100
AcDbEntity
  8
COTAS
  6
ByBlock
 62
    0
370
   -2
100
AcDbTrace
 10
209.5067270116451
 20
-48.45426908115326
 30
0
 11
204.5179681056954
 21
-52.36040083842463
 31
0
 12
203.5213950810268
 22
-50.5330625791171
 32
0
 13
203.5213950810268
 23
-50.5330625791171
 33
0
  0
LINE
  5
99
100
AcDbEntity
  8
COTAS
  6
ByBlock
 62
    0
370
   -2
100
AcDbLine
 10
170
 20
-70
 11
209.5067270116451
 21
-48.45426908115327
  0
MTEXT
  5
9A
100
AcDbEntity
  8
COTAS
  6
CONTINUOUS
 62
    0
370
   -2
100
AcDbMText
 10
187.5090165351094
 20
-55.1118504768636
 30
0
 40
6.25
 41
8.333333333333719
 71
    5
 72
    1
  1
45
  7
standard
210
0
220
0
230
1
 50
28.60666717315978
 73
    2
 44
1
  0
ENDBLK
  5
52
330
50
100
AcDbEntity
  8
0
100
AcDbBlockEnd
  0
BLOCK
  5
54
330
53
100
AcDbEntity
  8
0
100
AcDbBlockBegin
  2
*D14
 70
    1
 10
0
 20
0
  3
*D14
  1

  0
SOLID
  5
9B
100
AcDbEntity
  8
COTAS
  6
ByBlock
 62
    0
370
   -2
100
AcDbTrace
 10
185.4015893224852
 20
-32.24104054628634
 30
0
 11
189.550666102046
 21
-27.45243504946724
 31
0
 12
190.8785058694777
 22
-29.05529638453439
 32
0
 13
190.8785058694777
 23
-29.05529638453439
 33
0
  0
LINE
  5
9C
100
AcDbEntity
  8
COTAS
  6
ByBlock
 62
    0
370
   -2
100
AcDbLine
 10
170
 20
-45
 11
200.9101341263766
 21
-19.39347720747744
  0
MTEXT
  5
9D
100
AcDbEntity
  8
COTAS
  6
CONTINUOUS
 62
    0
370
   -2
100
AcDbMText
 10
190.1654806024668
 20
-22.20751137942441
 30
0
 40
6.25
 41
7.638888888888888
 71
    5
 72
    1
  1
20
  7
standard
210
0
220
0
230
1
 50
39.6389746225534
 73
    2
 44
1
  0
ENDBLK
  5
55
330
53
100
AcDbEntity
  8
0
100
AcDbBlockEnd
  0
BLOCK
  5
57
330
56
100
AcDbEntity
  8
0
100
AcDbBlockBegin
  2
*D23
 70
    1
 10
0
 20
0
  3
*D23
  1

  0
SOLID
  5
9E
100
AcDbEntity
  8
COTAS
  6
ByBlock
 62
    0
370
   -2
100
AcDbTrace
 10
121.5858536820396
 20
-202.4928153873784
 30
0
 11
127.3775936028769
 21
-199.9235101473893
 31
0
 12
127.8976503406923
 22
-201.9389167805229
 32
0
 13
127.8976503406923
 23
-201.9389167805229
 33
0
  0
LINE
  5
9F
100
AcDbEntity
  8
COTAS
  6
ByBlock
 62
    0
370
   -2
100
AcDbLine
 10
170
 20
-190
 11
121.5858536820396
 21
-202.4928153873784
  0
MTEXT
  5
A0
100
AcDbEntity
  8
COTAS
  6
CONTINUOUS
 62
    0
370
   -2
100
AcDbMText
 10
144.621725398453
 20
-191.7075814763804
 30
0
 40
6.25
 41
7.638888888889277
 71
    5
 72
    1
  1
50
  7
standard
210
0
220
0
230
1
 50
14.4690093846748
 73
    2
 44
1
  0
ENDBLK
  5
58
330
56
100
AcDbEntity
  8
0
100
AcDbBlockEnd
  0
BLOCK
  5
5A
330
59
100
AcDbEntity
  8
0
100
AcDbBlockBegin
  2
*D6
 70
    1
 10
0
 20
0
  3
*D6
  1

  0
SOLID
  5
A1
100
AcDbEntity
  8
COTAS
  6
ByBlock
 62
    0
370
   -2
100
AcDbTrace
 10
146.8915198722904
 20
34.53930140666436
 30
0
 11
153.0657454255247
 21
33.11644528440693
 31
0
 12
152.2715320773185
 22
31.19250451999721
 32
0
 13
152.2715320773185
 23
31.19250451999721
 33
0
  0
LINE
  5
A2
100
AcDbEntity
  8
COTAS
  6
ByBlock
 62
    0
370
   -2
100
AcDbLine
 10
169.9999953888152
 20
24.99999538881518
 11
146.8915198722904
 21
34.53930140666436
  0
MTEXT
  5
A3
100
AcDbEntity
  8
COTAS
  6
CONTINUOUS
 62
    0
370
   -2
100
AcDbMText
 10
160.2343775088995
 20
34.10248755708817
 30
0
 40
6.25
 41
7.638888888889277
 71
    5
 72
    1
  1
25
  7
standard
210
0
220
0
230
1
 50
337.568895081763
 73
    2
 44
1
  0
ENDBLK
  5
5B
330
59
100
AcDbEntity
  8
0
100
AcDbBlockEnd
  0
BLOCK
  5
5D
330
5C
100
AcDbEntity
  8
0
100
AcDbBlockBegin
  2
*D9
 70
    1
 10
0
 20
0
  3
*D9
  1

  0
SOLID
  5
A4
100
AcDbEntity
  8
COTAS
  6
ByBlock
 62
    0
370
   -2
100
AcDbTrace
 10
59.01094242423289
 20
-39.28307704177814
 30
0
 11
56.27825093762728
 21
-44.99954255517799
 31
0
 12
54.57331976942754
 22
-43.80558584778558
 32
0
 13
54.57331976942754
 23
-43.80558584778558
 33
0
  0
LINE
  5
A5
100
AcDbEntity
  8
COTAS
  6
ByBlock
 62
    0
370
   -2
100
AcDbLine
 10
37.5
 20
-70
 11
59.01094242423289
 21
-39.28307704177814
  0
MTEXT
  5
A6
100
AcDbEntity
  8
COTAS
  6
CONTINUOUS
 62
    0
370
   -2
100
AcDbMText
 10
44.41585584233871
 20
-51.95267071785996
 30
0
 40
6.25
 41
14.93055555555633
 71
    5
 72
    1
  1
37,5
  7
standard
210
0
220
0
230
1
 50
54.9965939487228
 73
    2
 44
1
  0
ENDBLK
  5
5E
330
5C
100
AcDbEntity
  8
0
100
AcDbBlockEnd
  0
BLOCK
  5
60
330
5F
100
AcDbEntity
  8
0
100
AcDbBlockBegin
  2
*D22
 70
    1
 10
0
 20
0
  3
*D22
  1

  0
SOLID
  5
A7
100
AcDbEntity
  8
COTAS
  6
ByBlock
 62
    0
370
   -2
100
AcDbTrace
 10
129.6146858430539
 20
-170.1499017522641
 30
0
 11
135.6828289957306
 21
-171.9728716931789
 31
0
 12
134.7646855117511
 22
-173.8408479912759
 32
0
 13
134.7646855117511
 23
-173.8408479912759
 33
0
  0
LINE
  5
A8
100
AcDbEntity
  8
COTAS
  6
ByBlock
 62
    0
370
   -2
100
AcDbLine
 10
170
 20
-190
 11
129.6146858430539
 21
-170.1499017522641
  0
MTEXT
  5
A9
100
AcDbEntity
  8
COTAS
  6
CONTINUOUS
 62
    0
370
   -2
100
AcDbMText
 10
151.8750614889994
 20
-175.8681473181168
 30
0
 40
6.25
 41
8.333333333333719
 71
    5
 72
    1
  1
45
  7
standard
210
0
220
0
230
1
 50
333.8250647086173
 73
    2
 44
1
  0
ENDBLK
  5
61
330
5F
100
AcDbEntity
  8
0
100
AcDbBlockEnd
  0
BLOCK
  5
63
330
62
100
AcDbEntity
  8
0
100
AcDbBlockBegin
  2
*D16
 70
    1
 10
0
 20
0
  3
*D16
  1

  0
SOLID
  5
AA
100
AcDbEntity
  8
COTAS
  6
ByBlock
 62
    0
370
   -2
100
AcDbTrace
 10
90.35357660637169
 20
-176.3069432791501
 30
0
 11
94.67954683804128
 21
-171.6775197425134
 31
0
 12
95.94626004490864
 22
-173.3291130819811
 32
0
 13
95.94626004490864
 23
-173.3291130819811
 33
0
  0
LINE
  5
AB
100
AcDbEntity
  8
COTAS
  6
ByBlock
 62
    0
370
   -2
100
AcDbLine
 10
72.49999999999997
 20
-190
 11
112.1195110493252
 21
-159.613247585521
  0
MTEXT
  5
AC
100
AcDbEntity
  8
COTAS
  6
CONTINUOUS
 62
    0
370
   -2
100
AcDbMText
 10
98.38382367767139
 20
-164.2406003060081
 30
0
 40
6.25
 41
14.93055555555594
 71
    5
 72
    1
  1
22,5
  7
standard
210
0
220
0
230
1
 50
37.48691996031604
 73
    2
 44
1
  0
ENDBLK
  5
64
330
62
100
AcDbEntity
  8
0
100
AcDbBlockEnd
  0
BLOCK
  5
66
330
65
100
AcDbEntity
  8
0
100
AcDbBlockBegin
  2
*D5
 70
    1
 10
0
 20
0
  3
*D5
  1

  0
SOLID
  5
AD
100
AcDbEntity
  8
COTAS
  6
ByBlock
 62
    0
370
   -2
100
AcDbTrace
 10
178.8145105887816
 20
30.94665560802151
 30
0
 11
182.067721446622
 21
36.38376879805963
 31
0
 12
183.6540444365505
 22
35.03621461397263
 32
0
 13
183.6540444365505
 23
35.03621461397263
 33
0
  0
LINE
  5
AE
100
AcDbEntity
  8
COTAS
  6
ByBlock
 62
    0
370
   -2
100
AcDbLine
 10
195
 20
50
 11
178.8145105887816
 21
30.94665560802151
  0
MTEXT
  5
AF
100
AcDbEntity
  8
COTAS
  6
CONTINUOUS
 62
    0
370
   -2
100
AcDbMText
 10
183.3347532208948
 20
43.5081070686142
 30
0
 40
6.25
 41
7.638888888889277
 71
    5
 72
    1
  1
25
  7
standard
210
0
220
0
230
1
 50
49.65266965551238
 73
    2
 44
1
  0
ENDBLK
  5
67
330
65
100
AcDbEntity
  8
0
100
AcDbBlockEnd
  0
BLOCK
  5
69
330
68
100
AcDbEntity
  8
0
100
AcDbBlockBegin
  2
*D10
 70
    1
 10
0
 20
0
  3
*D10
  1

  0
SOLID
  5
B0
100
AcDbEntity
  8
COTAS
  6
ByBlock
 62
    0
370
   -2
100
AcDbTrace
 10
95.01910769058706
 20
-60.01435932975873
 30
0
 11
97.94728718980393
 21
-54.39552087797685
 31
0
 12
99.61003491427491
 22
-55.64755638553759
 32
0
 13
99.61003491427491
 23
-55.64755638553759
 33
0
  0
LINE
  5
B1
100
AcDbEntity
  8
COTAS
  6
ByBlock
 62
    0
370
   -2
100
AcDbLine
 10
87.50000096768235
 20
-70.00000072576177
 11
110.6839133633054
 21
-39.21093975475211
  0
MTEXT
  5
B2
100
AcDbEntity
  8
COTAS
  6
CONTINUOUS
 62
    0
370
   -2
100
AcDbMText
 10
99.1068950034451
 20
-46.79298452116616
 30
0
 40
6.25
 41
13.54166666666706
 71
    5
 72
    1
  1
12,5
  7
standard
210
0
220
0
230
1
 50
53.02055027848799
 73
    2
 44
1
  0
ENDBLK
  5
6A
330
68
100
AcDbEntity
  8
0
100
AcDbBlockEnd
  0
BLOCK
  5
6C
330
6B
100
AcDbEntity
  8
0
100
AcDbBlockBegin
  2
*D7
 70
    1
 10
0
 20
0
  3
*D7
  1

  0
SOLID
  5
B3
100
AcDbEntity
  8
COTAS
  6
ByBlock
 62
    0
370
   -2
100
AcDbTrace
 10
20.34508646059768
 20
-60.26837020711602
 30
0
 11
23.45740405531598
 21
-54.74939748418439
 31
0
 12
25.07785532647705
 22
-56.05571313716368
 32
0
 13
25.07785532647705
 23
-56.05571313716368
 33
0
  0
LINE
  5
B4
100
AcDbEntity
  8
COTAS
  6
ByBlock
 62
    0
370
   -2
100
AcDbLine
 10
12.5
 20
-70
 11
36.68901658684307
 21
-39.99414147194076
  0
MTEXT
  5
B5
100
AcDbEntity
  8
COTAS
  6
CONTINUOUS
 62
    0
370
   -2
100
AcDbMText
 10
24.86769035138888
 20
-47.18934841680426
 30
0
 40
6.25
 41
13.54166666666706
 71
    5
 72
    1
  1
12,5
  7
standard
210
0
220
0
230
1
 50
51.12621494271952
 73
    2
 44
1
  0
ENDBLK
  5
6D
330
6B
100
AcDbEntity
  8
0
100
AcDbBlockEnd
  0
BLOCK
  5
6F
330
6E
100
AcDbEntity
  8
0
100
AcDbBlockBegin
  2
*D19
 70
    1
 10
0
 20
0
  3
*D19
  1

  0
SOLID
  5
B6
100
AcDbEntity
  8
COTAS
  6
ByBlock
 62
    0
370
   -2
100
AcDbTrace
 10
80.66422064668507
 20
-30.50689209328527
 30
0
 11
77.65321181131607
 21
-36.08178281151341
 31
0
 12
76.0091743203828
 22
-34.8052783517358
 32
0
 13
76.0091743203828
 23
-34.8052783517358
 33
0
  0
LINE
  5
B7
100
AcDbEntity
  8
COTAS
  6
ByBlock
 62
    0
370
   -2
100
AcDbLine
 10
50
 20
-70
 11
80.66422064668507
 21
-30.50689209328526
  0
MTEXT
  5
B8
100
AcDbEntity
  8
COTAS
  6
CONTINUOUS
 62
    0
370
   -2
100
AcDbMText
 10
61.62963145708802
 20
-47.37867536101591
 30
0
 40
6.25
 41
7.638888888889277
 71
    5
 72
    1
  1
50
  7
standard
210
0
220
0
230
1
 50
52.17263182433955
 73
    2
 44
1
  0
ENDBLK
  5
70
330
6E
100
AcDbEntity
  8
0
100
AcDbBlockEnd
  0
BLOCK
  5
72
330
71
100
AcDbEntity
  8
0
100
AcDbBlockBegin
  2
*D4
 70
    1
 10
0
 20
0
  3
*D4
  1

  0
SOLID
  5
B9
100
AcDbEntity
  8
COTAS
  6
ByBlock
 62
    0
370
   -2
100
AcDbTrace
 10
194.499886357956
 20
79.97546948684985
 30
0
 11
188.5820349688866
 21
77.71170808958512
 31
0
 12
188.167792262455
 22
79.75149383509725
 32
0
 13
188.167792262455
 23
79.75149383509725
 33
0
  0
LINE
  5
BA
100
AcDbEntity
  8
COTAS
  6
ByBlock
 62
    0
370
   -2
100
AcDbLine
 10
169.9999953888152
 20
74.99999538881518
 11
194.499886357956
 21
79.97546948684985
  0
MTEXT
  5
BB
100
AcDbEntity
  8
COTAS
  6
CONTINUOUS
 62
    0
370
   -2
100
AcDbMText
 10
181.3170394800041
 20
82.0814619945464
 30
0
 40
6.25
 41
7.638888888889277
 71
    5
 72
    1
  1
25
  7
standard
210
0
220
0
230
1
 50
11.47959658264612
 73
    2
 44
1
  0
ENDBLK
  5
73
330
71
100
AcDbEntity
  8
0
100
AcDbBlockEnd
  0
BLOCK
  5
75
330
74
100
AcDbEntity
  8
0
100
AcDbBlockBegin
  2
*D20
 70
    1
 10
0
 20
0
  3
*D20
  1

  0
SOLID
  5
BC
100
AcDbEntity
  8
COTAS
  6
ByBlock
 62
    0
370
   -2
100
AcDbTrace
 10
86.753578979655
 20
83.89947539691819
 30
0
 11
82.86497318291238
 21
78.89704341992979
 31
0
 12
81.45379003148388
 22
80.42703852467706
 32
0
 13
81.45379003148388
 23
80.42703852467706
 33
0
  0
LINE
  5
BD
100
AcDbEntity
  8
COTAS
  6
ByBlock
 62
    0
370
   -2
100
AcDbLine
 10
50
 20
50
 11
86.753578979655
 21
83.89947539691819
  0
MTEXT
  5
BE
100
AcDbEntity
  8
COTAS
  6
CONTINUOUS
 62
    0
370
   -2
100
AcDbMText
 10
65.19871367136642
 20
70.39538572780177
 30
0
 40
6.25
 41
7.638888888889277
 71
    5
 72
    1
  1
50
  7
standard
210
0
220
0
230
1
 50
42.68673516726896
 73
    2
 44
1
  0
ENDBLK
  5
76
330
74
100
AcDbEntity
  8
0
100
AcDbBlockEnd
  0
BLOCK
  5
78
330
77
100
AcDbEntity
  8
0
100
AcDbBlockBegin
  2
*D1
 70
    1
 10
0
 20
0
  3
*D1
  1

  0
SOLID
  5
BF
100
AcDbEntity
  8
COTAS
  6
ByBlock
 62
    0
370
   -2
100
AcDbTrace
 10
36.18033988749895
 20
72.36067977499789
 30
0
 11
34.31609570839452
 21
66.30508943486326
 31
0
 12
32.4544141228539
 22
67.23593022763357
 32
0
 13
32.4544141228539
 23
67.23593022763357
 33
0
  0
LINE
  5
C0
100
AcDbEntity
  8
COTAS
  6
ByBlock
 62
    0
370
   -2
100
AcDbLine
 10
25
 20
50
 11
36.18033988749895
 21
72.36067977499789
  0
MTEXT
  5
C1
100
AcDbEntity
  8
COTAS
  6
CONTINUOUS
 62
    0
370
   -2
100
AcDbMText
 10
26.39754248593737
 20
63.276653616405
 30
0
 40
6.25
 41
7.638888888889277
 71
    5
 72
    1
  1
25
  7
standard
210
0
220
0
230
1
 50
63.43494882292201
 73
    2
 44
1
  0
ENDBLK
  5
79
330
77
100
AcDbEntity
  8
0
100
AcDbBlockEnd
  0
BLOCK
  5
7B
330
7A
100
AcDbEntity
  8
0
100
AcDbBlockBegin
  2
*D13
 70
    1
 10
0
 20
0
  3
*D13
  1

  0
SOLID
  5
C2
100
AcDbEntity
  8
COTAS
  6
ByBlock
 62
    0
370
   -2
100
AcDbTrace
 10
148.0375265332824
 20
-33.0563925372723
 30
0
 11
154.0253389544812
 21
-35.12803032786046
 31
0
 12
153.0309508454423
 22
-36.95655847804799
 32
0
 13
153.0309508454423
 23
-36.95655847804799
 33
0
  0
LINE
  5
C3
100
AcDbEntity
  8
COTAS
  6
ByBlock
 62
    0
370
   -2
100
AcDbLine
 10
170
 20
-45
 11
148.0375265332824
 21
-33.0563925372723
  0
MTEXT
  5
C4
100
AcDbEntity
  8
COTAS
  6
CONTINUOUS
 62
    0
370
   -2
100
AcDbMText
 10
161.2581896659026
 20
-34.91023249362659
 30
0
 40
6.25
 41
7.638888888889277
 71
    5
 72
    1
  1
25
  7
standard
210
0
220
0
230
1
 50
331.4618180586551
 73
    2
 44
1
  0
ENDBLK
  5
7C
330
7A
100
AcDbEntity
  8
0
100
AcDbBlockEnd
  0
BLOCK
  5
7E
330
7D
100
AcDbEntity
  8
0
100
AcDbBlockBegin
  2
*D8
 70
    1
 10
0
 20
0
  3
*D8
  1

  0
SOLID
  5
C5
100
AcDbEntity
  8
COTAS
  6
ByBlock
 62
    0
370
   -2
100
AcDbTrace
 10
41.93128725556883
 20
-51.60620958098254
 30
0
 11
38.46417070068325
 21
-56.90948060193696
 31
0
 12
36.93276018266999
 22
-55.49983357776933
 32
0
 13
36.93276018266999
 23
-55.49983357776933
 33
0
  0
LINE
  5
C6
100
AcDbEntity
  8
COTAS
  6
ByBlock
 62
    0
370
   -2
100
AcDbLine
 10
25
 20
-69.99999961646496
 11
41.93128725556883
 21
-51.60620958098254
  0
MTEXT
  5
C7
100
AcDbEntity
  8
COTAS
  6
CONTINUOUS
 62
    0
370
   -2
100
AcDbMText
 10
30.01680799613146
 20
-57.62848823830459
 30
0
 40
6.25
 41
7.638888888889277
 71
    5
 72
    1
  1
25
  7
standard
210
0
220
0
230
1
 50
47.37076365013814
 73
    2
 44
1
  0
ENDBLK
  5
7F
330
7D
100
AcDbEntity
  8
0
100
AcDbBlockEnd
  0
BLOCK
  5
81
330
80
100
AcDbEntity
  8
0
100
AcDbBlockBegin
  2
*D3
 70
    1
 10
0
 20
0
  3
*D3
  1

  0
SOLID
  5
C8
100
AcDbEntity
  8
COTAS
  6
ByBlock
 62
    0
370
   -2
100
AcDbTrace
 10
137.5562832481777
 20
73.86610736837156
 30
0
 11
140.4107218699545
 21
68.2094510343377
 31
0
 12
138.423703002312
 22
67.58971001821963
 32
0
 13
138.423703002312
 23
67.58971001821963
 33
0
  0
LINE
  5
C9
100
AcDbEntity
  8
COTAS
  6
ByBlock
 62
    0
370
   -2
100
AcDbLine
 10
145
 20
50
 11
137.5562832481777
 21
73.86610736837156
  0
MTEXT
  5
CA
100
AcDbEntity
  8
COTAS
  6
CONTINUOUS
 62
    0
370
   -2
100
AcDbMText
 10
145.7530367556585
 20
63.32875057515247
 30
0
 40
6.25
 41
7.638888888889277
 71
    5
 72
    1
  1
25
  7
standard
210
0
220
0
230
1
 50
287.3224330946949
 73
    2
 44
1
  0
ENDBLK
  5
82
330
80
100
AcDbEntity
  8
0
100
AcDbBlockEnd
  0
BLOCK
  5
84
330
83
100
AcDbEntity
  8
0
100
AcDbBlockBegin
  2
*D18
 70
    1
 10
0
 20
0
  3
*D18
  1

  0
SOLID
  5
CB
100
AcDbEntity
  8
COTAS
  6
ByBlock
 62
    0
370
   -2
100
AcDbTrace
 10
123.6058564248261
 20
-51.35641016525656
 30
0
 11
129.7931763924235
 21
-52.72120038555673
 31
0
 12
129.0170723510221
 22
-54.65251740364226
 32
0
 13
129.0170723510221
 23
-54.65251740364226
 33
0
  0
LINE
  5
CC
100
AcDbEntity
  8
COTAS
  6
ByBlock
 62
    0
370
   -2
100
AcDbLine
 10
170
 20
-70
 11
123.6058564248261
 21
-51.35641016525656
  0
MTEXT
  5
CD
100
AcDbEntity
  8
COTAS
  6
CONTINUOUS
 62
    0
370
   -2
100
AcDbMText
 10
148.5507647594202
 20
-56.32875412245573
 30
0
 40
6.25
 41
7.638888888889277
 71
    5
 72
    1
  1
50
  7
standard
210
0
220
0
230
1
 50
338.10716218458
 73
    2
 44
1
  0
ENDBLK
  5
85
330
83
100
AcDbEntity
  8
0
100
AcDbBlockEnd
  0
BLOCK
  5
87
330
86
100
AcDbEntity
  8
0
100
AcDbBlockBegin
  2
*D21
 70
    1
 10
0
 20
0
  3
*D21
  1

  0
SOLID
  5
CE
100
AcDbEntity
  8
COTAS
  6
ByBlock
 62
    0
370
   -2
100
AcDbTrace
 10
181.8682060202566
 20
-180.8269042378952
 30
0
 11
186.1768553570226
 21
-176.1813556567649
 31
0
 12
187.4497283670377
 22
-177.8282063506049
 32
0
 13
187.4497283670377
 23
-177.8282063506049
 33
0
  0
LINE
  5
CF
100
AcDbEntity
  8
COTAS
  6
ByBlock
 62
    0
370
   -2
100
AcDbLine
 10
170
 20
-190
 11
196.7034635455776
 21
-169.360534535264
  0
MTEXT
  5
D0
100
AcDbEntity
  8
COTAS
  6
CONTINUOUS
 62
    0
370
   -2
100
AcDbMText
 10
186.4192423572594
 20
-171.3849050052494
 30
0
 40
6.25
 41
6.250000000000387
 71
    5
 72
    1
  1
15
  7
standard
210
0
220
0
230
1
 50
37.70091802070479
 73
    2
 44
1
  0
ENDBLK
  5
88
330
86
100
AcDbEntity
  8
0
100
AcDbBlockEnd
  0
BLOCK
  5
8A
330
89
100
AcDbEntity
  8
0
100
AcDbBlockBegin
  2
*D24
 70
    1
 10
0
 20
0
  3
*D24
  1

  0
SOLID
  5
D1
100
AcDbEntity
  8
COTAS
  6
ByBlock
 62
    0
370
   -2
100
AcDbTrace
 10
212.8827704931016
 20
-182.3166267549942
 30
0
 11
217.7175131315876
 21
-178.221404618594
 31
0
 12
218.7836699322003
 22
-180.0090378538896
 32
0
 13
218.7836699322003
 23
-180.0090378538896
 33
0
  0
LINE
  5
D2
100
AcDbEntity
  8
COTAS
  6
ByBlock
 62
    0
370
   -2
100
AcDbLine
 10
200
 20
-190
 11
228.9862336094789
 21
-172.7124101987368
  0
MTEXT
  5
D3
100
AcDbEntity
  8
COTAS
  6
CONTINUOUS
 62
    0
370
   -2
100
AcDbMText
 10
218.533447912226
 20
-173.4886526977712
 30
0
 40
6.25
 41
6.250000000000387
 71
    5
 72
    1
  1
15
  7
standard
210
0
220
0
230
1
 50
30.81214204472627
 73
    2
 44
1
  0
ENDBLK
  5
8B
330
89
100
AcDbEntity
  8
0
100
AcDbBlockEnd
  0
BLOCK
  5
8D
330
8C
100
AcDbEntity
  8
0
100
AcDbBlockBegin
  2
*D15
 70
    1
 10
0
 20
0
  3
*D15
  1

  0
SOLID
  5
D4
100
AcDbEntity
  8
COTAS
  6
ByBlock
 62
    0
370
   -2
100
AcDbTrace
 10
64.59258067866547
 20
-157.8404664120549
 30
0
 11
69.22977154477414
 21
-153.5228233515259
 31
0
 12
70.37866172588927
 22
-155.2584426240518
 32
0
 13
70.37866172588927
 23
-155.2584426240518
 33
0
  0
LINE
  5
D5
100
AcDbEntity
  8
COTAS
  6
ByBlock
 62
    0
370
   -2
100
AcDbLine
 10
50
 20
-167.5
 11
86.30773049810847
 21
-143.4661604776126
  0
MTEXT
  5
D6
100
AcDbEntity
  8
COTAS
  6
CONTINUOUS
 62
    0
370
   -2
100
AcDbMText
 10
72.86278052018739
 20
-146.7445864773341
 30
0
 40
6.25
 41
13.54166666666706
 71
    5
 72
    1
  1
17,5
  7
standard
210
0
220
0
230
1
 50
33.50249848580643
 73
    2
 44
1
  0
ENDBLK
  5
8E
330
8C
100
AcDbEntity
  8
0
100
AcDbBlockEnd
  0
BLOCK
  5
90
330
8F
100
AcDbEntity
  8
0
100
AcDbBlockBegin
  2
*D12
 70
    1
 10
0
 20
0
  3
*D12
  1

  0
SOLID
  5
D7
100
AcDbEntity
  8
COTAS
  6
ByBlock
 62
    0
370
   -2
100
AcDbTrace
 10
37.22102363351781
 20
-97.69879633378703
 30
0
 11
40.66548093242375
 21
-92.38078028991595
 31
0
 12
42.20289211266672
 22
-93.78388034703596
 32
0
 13
42.20289211266672
 23
-93.78388034703596
 33
0
  0
LINE
  5
D8
100
AcDbEntity
  8
COTAS
  6
ByBlock
 62
    0
370
   -2
100
AcDbLine
 10
62.50000096768235
 20
-70.00000024192059
 11
37.22102363351781
 21
-97.69879633378703
  0
MTEXT
  5
D9
100
AcDbEntity
  8
COTAS
  6
CONTINUOUS
 62
    0
370
   -2
100
AcDbMText
 10
46.39816278911677
 20
-80.68952612108323
 30
0
 40
6.25
 41
14.93055555555633
 71
    5
 72
    1
  1
37,5
  7
standard
210
0
220
0
230
1
 50
47.61523077676688
 73
    2
 44
1
  0
ENDBLK
  5
91
330
8F
100
AcDbEntity
  8
0
100
AcDbBlockEnd
  0
BLOCK
  5
93
330
92
100
AcDbEntity
  8
0
100
AcDbBlockBegin
  2
*D11
 70
    1
 10
0
 20
0
  3
*D11
  1

  0
SOLID
  5
DA
100
AcDbEntity
  8
COTAS
  6
ByBlock
 62
    0
370
   -2
100
AcDbTrace
 10
58.70351990236477
 20
-88.9585004094746
 30
0
 11
61.98842691931726
 21
-83.54047801963226
 31
0
 12
63.56685341807106
 22
-84.89727302826772
 32
0
 13
63.56685341807106
 23
-84.89727302826772
 33
0
  0
LINE
  5
DB
100
AcDbEntity
  8
COTAS
  6
ByBlock
 62
    0
370
   -2
100
AcDbLine
 10
75.00000096768235
 20
-70.00000086737619
 11
58.70351990236476
 21
-88.9585004094746
  0
MTEXT
  5
DC
100
AcDbEntity
  8
COTAS
  6
CONTINUOUS
 62
    0
370
   -2
100
AcDbMText
 10
63.29704177088011
 20
-76.42366043867834
 30
0
 40
6.25
 41
7.638888888889277
 71
    5
 72
    1
  1
25
  7
standard
210
0
220
0
230
1
 50
49.31807208750138
 73
    2
 44
1
  0
ENDBLK
  5
94
330
92
100
AcDbEntity
  8
0
100
AcDbBlockEnd
  0
BLOCK
  5
96
330
95
100
AcDbEntity
  8
0
100
AcDbBlockBegin
  2
*D2
 70
    1
 10
0
 20
0
  3
*D2
  1

  0
SOLID
  5
DD
100
AcDbEntity
  8
COTAS
  6
ByBlock
 62
    0
370
   -2
100
AcDbTrace
 10
68.93660937409167
 20
25.7464374963667
 30
0
 11
69.44281843390904
 21
32.06223777143995
 31
0
 12
71.46209562722848
 22
31.5574184731101
 32
0
 13
71.46209562722848
 23
31.5574184731101
 33
0
  0
LINE
  5
DE
100
AcDbEntity
  8
COTAS
  6
ByBlock
 62
    0
370
   -2
100
AcDbLine
 10
75
 20
50
 11
68.93660937409167
 21
25.7464374963667
  0
MTEXT
  5
DF
100
AcDbEntity
  8
COTAS
  6
CONTINUOUS
 62
    0
370
   -2
100
AcDbMText
 10
67.42076171761458
 20
39.01010449054116
 30
0
 40
6.25
 41
7.638888888889277
 71
    5
 72
    1
  1
25
  7
standard
210
0
220
0
230
1
 50
75.96375653207352
 73
    2
 44
1
  0
ENDBLK
  5
97
330
95
100
AcDbEntity
  8
0
100
AcDbBlockEnd
  0
ENDSEC
  0
SECTION
  2
ENTITIES
  0
LWPOLYLINE
  5
E0
100
AcDbEntity
  8
0
  6
ByLayer
 62
  256
370
   -1
100
AcDbPolyline
 90
    4
 70
    1
 43
0
 10
0
 20
0
 10
100
 20
0
 10
100
 20
100
 10
0
 20
100
  0
LINE
  5
E1
100
AcDbEntity
  8
0
  6
ByLayer
 62
  256
370
   -1
100
AcDbLine
 10
100
 20
100
 11
0
 21
0
  0
LINE
  5
E2
100
AcDbEntity
  8
0
  6
ByLayer
 62
  256
370
   -1
100
AcDbLine
 10
0
 20
100
 11
100
 21
0
  0
LINE
  5
E3
100
AcDbEntity
  8
0
  6
ByLayer
 62
  256
370
   -1
100
AcDbLine
 10
50
 20
50
 11
100
 21
50
  0
LINE
  5
E4
100
AcDbEntity
  8
0
  6
ByLayer
 62
  256
370
   -1
100
AcDbLine
 10
50
 20
50
 11
50
 21
100
  0
LINE
  5
E5
100
AcDbEntity
  8
0
  6
ByLayer
 62
  256
370
   -1
100
AcDbLine
 10
50
 20
50
 11
0
 21
50
  0
LINE
  5
E6
100
AcDbEntity
  8
0
  6
ByLayer
 62
  256
370
   -1
100
AcDbLine
 10
50
 20
50
 11
50
 21
0
  0
CIRCLE
  5
E7
100
AcDbEntity
  8
CORTAR
  6
ByLayer
 62
  256
370
   -1
100
AcDbCircle
 10
50
 20
50
 40
50
  0
ARC
  5
E8
100
AcDbEntity
  8
GRABAR
  6
ByLayer
 62
  256
370
   -1
100
AcDbCircle
 10
25
 20
50
 40
25
100
AcDbArc
 50
0
 51
180
  0
ARC
  5
E9
100
AcDbEntity
  8
GRABAR
  6
ByLayer
 62
  256
370
   -1
100
AcDbCircle
 10
75
 20
50
 40
25
100
AcDbArc
 50
180
 51
359.9999970449696
  0
LWPOLYLINE
  5
EA
100
AcDbEntity
  8
0
  6
ByLayer
 62
  256
370
   -1
100
AcDbPolyline
 90
    4
 70
    1
 43
0
 10
120
 20
0
 10
220
 20
0
 10
220
 20
100
 10
120
 20
100
  0
LINE
  5
EB
100
AcDbEntity
  8
0
  6
ByLayer
 62
  256
370
   -1
100
AcDbLine
 10
220
 20
100
 11
120
 21
0
  0
LINE
  5
EC
100
AcDbEntity
  8
0
  6
ByLayer
 62
  256
370
   -1
100
AcDbLine
 10
120
 20
100
 11
220
 21
0
  0
LINE
  5
ED
100
AcDbEntity
  8
0
  6
ByLayer
 62
  256
370
   -1
100
AcDbLine
 10
170
 20
50
 11
220
 21
50
  0
LINE
  5
EE
100
AcDbEntity
  8
0
  6
ByLayer
 62
  256
370
   -1
100
AcDbLine
 10
170
 20
50
 11
170
 21
100
  0
LINE
  5
EF
100
AcDbEntity
  8
0
  6
ByLayer
 62
  256
370
   -1
100
AcDbLine
 10
170
 20
50
 11
120
 21
50
  0
LINE
  5
F0
100
AcDbEntity
  8
0
  6
ByLayer
 62
  256
370
   -1
100
AcDbLine
 10
170
 20
50
 11
170
 21
0
  0
CIRCLE
  5
F1
100
AcDbEntity
  8
CORTAR
  6
ByLayer
 62
  256
370
   -1
100
AcDbCircle
 10
170
 20
50
 40
50
  0
ARC
  5
F2
100
AcDbEntity
  8
GRABAR
  6
ByLayer
 62
  256
370
   -1
100
AcDbCircle
 10
145
 20
50
 40
25
100
AcDbArc
 50
0
 51
180
  0
ARC
  5
F3
100
AcDbEntity
  8
GRABAR
  6
ByLayer
 62
  256
370
   -1
100
AcDbCircle
 10
195
 20
50
 40
25
100
AcDbArc
 50
180
 51
359.9999970449696
  0
ARC
  5
F4
100
AcDbEntity
  8
GRABAR
  6
ByLayer
 62
  256
370
   -1
100
AcDbCircle
 10
169.9999953888152
 20
24.99999538881518
 40
25
100
AcDbArc
 50
90
 51
270
  0
ARC
  5
F5
100
AcDbEntity
  8
GRABAR
  6
ByLayer
 62
  256
370
   -1
100
AcDbCircle
 10
169.9999953888152
 20
74.99999538881518
 40
25
100
AcDbArc
 50
270
 51
89.99999704496959
  0
LWPOLYLINE
  5
F6
100
AcDbEntity
  8
0
  6
ByLayer
 62
  256
370
   -1
100
AcDbPolyline
 90
    4
 70
    1
 43
0
 10
0
 20
-120
 10
100
 20
-120
 10
100
 20
-20
 10
0
 20
-20
  0
LINE
  5
F7
100
AcDbEntity
  8
0
  6
ByLayer
 62
  256
370
   -1
100
AcDbLine
 10
100
 20
-20
 11
0
 21
-120
  0
LINE
  5
F8
100
AcDbEntity
  8
0
  6
ByLayer
 62
  256
370
   -1
100
AcDbLine
 10
0
 20
-20
 11
100
 21
-120
  0
LINE
  5
F9
100
AcDbEntity
  8
0
  6
ByLayer
 62
  256
370
   -1
100
AcDbLine
 10
50
 20
-70
 11
100
 21
-70
  0
LINE
  5
FA
100
AcDbEntity
  8
0
  6
ByLayer
 62
  256
370
   -1
100
AcDbLine
 10
50
 20
-70
 11
50
 21
-20
  0
LINE
  5
FB
100
AcDbEntity
  8
0
  6
ByLayer
 62
  256
370
   -1
100
AcDbLine
 10
50
 20
-70
 11
0
 21
-70
  0
LINE
  5
FC
100
AcDbEntity
  8
0
  6
ByLayer
 62
  256
370
   -1
100
AcDbLine
 10
50
 20
-70
 11
50
 21
-120
  0
CIRCLE
  5
FD
100
AcDbEntity
  8
CORTAR
  6
ByLayer
 62
  256
370
   -1
100
AcDbCircle
 10
50
 20
-70
 40
50
  0
LINE
  5
FE
100
AcDbEntity
  8
0
  6
ByLayer
 62
  256
370
   -1
100
AcDbLine
 10
12.5
 20
-20
 11
12.5
 21
-120
  0
LINE
  5
FF
100
AcDbEntity
  8
0
  6
ByLayer
 62
  256
370
   -1
100
AcDbLine
 10
25
 20
-20.00000000000001
 11
25
 21
-120
  0
LINE
  5
100
100
AcDbEntity
  8
0
  6
ByLayer
 62
  256
370
   -1
100
AcDbLine
 10
37.5
 20
-20.00000000000001
 11
37.5
 21
-120
  0
LINE
  5
101
100
AcDbEntity
  8
0
  6
ByLayer
 62
  256
370
   -1
100
AcDbLine
 10
50
 20
-20.00000000000001
 11
50
 21
-120
  0
LINE
  5
102
100
AcDbEntity
  8
0
  6
ByLayer
 62
  256
370
   -1
100
AcDbLine
 10
62.5
 20
-20.00000000000001
 11
62.5
 21
-120
  0
LINE
  5
103
100
AcDbEntity
  8
0
  6
ByLayer
 62
  256
370
   -1
100
AcDbLine
 10
75
 20
-20.00000000000002
 11
75
 21
-120
  0
LINE
  5
104
100
AcDbEntity
  8
0
  6
ByLayer
 62
  256
370
   -1
100
AcDbLine
 10
87.5
 20
-20.00000000000002
 11
87.5
 21
-120
  0
ARC
  5
105
100
AcDbEntity
  8
GRABAR
  6
ByLayer
 62
  256
370
   -1
100
AcDbCircle
 10
12.5
 20
-70
 40
12.5
100
AcDbArc
 50
0
 51
180
  0
ARC
  5
106
100
AcDbEntity
  8
GRABAR
  6
ByLayer
 62
  256
370
   -1
100
AcDbCircle
 10
25
 20
-69.99999961646496
 40
25
100
AcDbArc
 50
359.9999991210025
 51
180.0000008789975
  0
ARC
  5
107
100
AcDbEntity
  8
GRABAR
  6
ByLayer
 62
  256
370
   -1
100
AcDbCircle
 10
37.5
 20
-70
 40
37.5
100
AcDbArc
 50
0
 51
180
  0
ARC
  5
108
100
AcDbEntity
  8
GRABAR
  6
ByLayer
 62
  256
370
   -1
100
AcDbCircle
 10
87.50000096768235
 20
-70.00000072576177
 40
12.5
100
AcDbArc
 50
179.9999988911177
 51
359.9999988911177
  0
ARC
  5
109
100
AcDbEntity
  8
GRABAR
  6
ByLayer
 62
  256
370
   -1
100
AcDbCircle
 10
75.00000096768235
 20
-70.00000086737619
 40
25
100
AcDbArc
 50
179.9999980121201
 51
359.9999997701152
  0
ARC
  5
10A
100
AcDbEntity
  8
GRABAR
  6
ByLayer
 62
  256
370
   -1
100
AcDbCircle
 10
62.50000096768235
 20
-70.00000024192059
 40
37.5
100
AcDbArc
 50
179.9999988911177
 51
359.9999988911177
  0
LWPOLYLINE
  5
10B
100
AcDbEntity
  8
0
  6
ByLayer
 62
  256
370
   -1
100
AcDbPolyline
 90
    4
 70
    1
 43
0
 10
120
 20
-120
 10
220
 20
-120
 10
220
 20
-20
 10
120
 20
-20
  0
LINE
  5
10C
100
AcDbEntity
  8
0
  6
ByLayer
 62
  256
370
   -1
100
AcDbLine
 10
220
 20
-20
 11
120
 21
-120
  0
LINE
  5
10D
100
AcDbEntity
  8
0
  6
ByLayer
 62
  256
370
   -1
100
AcDbLine
 10
120
 20
-20
 11
220
 21
-120
  0
LINE
  5
10E
100
AcDbEntity
  8
0
  6
ByLayer
 62
  256
370
   -1
100
AcDbLine
 10
170
 20
-70
 11
220
 21
-70
  0
LINE
  5
10F
100
AcDbEntity
  8
0
  6
ByLayer
 62
  256
370
   -1
100
AcDbLine
 10
170
 20
-70
 11
170
 21
-20
  0
LINE
  5
110
100
AcDbEntity
  8
0
  6
ByLayer
 62
  256
370
   -1
100
AcDbLine
 10
170
 20
-70
 11
120
 21
-70
  0
LINE
  5
111
100
AcDbEntity
  8
0
  6
ByLayer
 62
  256
370
   -1
100
AcDbLine
 10
170
 20
-70
 11
170
 21
-120
  0
CIRCLE
  5
112
100
AcDbEntity
  8
CORTAR
  6
ByLayer
 62
  256
370
   -1
100
AcDbCircle
 10
170
 20
-70
 40
50
  0
ARC
  5
113
100
AcDbEntity
  8
GRABAR
  6
ByLayer
 62
  256
370
   -1
100
AcDbCircle
 10
170
 20
-70
 40
45
100
AcDbArc
 50
64.15806723683288
 51
72.32192951701639
  0
ARC
  5
114
100
AcDbEntity
  8
GRABAR
  6
ByLayer
 62
  256
370
   -1
100
AcDbCircle
 10
170
 20
-45
 40
25
100
AcDbArc
 50
90
 51
398.3161344736657
  0
CIRCLE
  5
115
100
AcDbEntity
  8
CORTAR
  6
ByLayer
 62
  256
370
   -1
100
AcDbCircle
 10
170
 20
-45
 40
20
  0
LINE
  5
116
100
AcDbEntity
  8
0
  6
ByLayer
 62
  256
370
   -1
100
AcDbLine
 10
169.9999999999999
 20
-69.99999716767533
 11
170.0000031470273
 21
-119.9999971676752
  0
ARC
  5
117
100
AcDbEntity
  8
GRABAR
  6
ByLayer
 62
  256
370
   -1
100
AcDbCircle
 10
169.9999984264864
 20
-94.99999716767528
 40
25
100
AcDbArc
 50
269.9999963937722
 51
218.316130867438
  0
CIRCLE
  5
118
100
AcDbEntity
  8
CORTAR
  6
ByLayer
 62
  256
370
   -1
100
AcDbCircle
 10
169.9999984264864
 20
-94.99999716767528
 40
20
  0
ARC
  5
119
100
AcDbEntity
  8
GRABAR
  6
ByLayer
 62
  256
370
   -1
100
AcDbCircle
 10
170
 20
-70
 40
45
100
AcDbArc
 50
295.8419240275202
 51
89.99999999999994
  0
ARC
  5
11A
100
AcDbEntity
  8
GRABAR
  6
ByLayer
 62
  256
370
   -1
100
AcDbCircle
 10
169.9999999999999
 20
-69.99999716767533
 40
45
100
AcDbArc
 50
295.8419291569398
 51
295.8419363693948
  0
ARC
  5
11B
100
AcDbEntity
  8
GRABAR
  6
ByLayer
 62
  256
370
   -1
100
AcDbCircle
 10
170
 20
-70
 40
45
100
AcDbArc
 50
115.8419327631671
 51
270.0000036062279
  0
LWPOLYLINE
  5
11C
100
AcDbEntity
  8
0
  6
ByLayer
 62
  256
370
   -1
100
AcDbPolyline
 90
    4
 70
    1
 43
0
 10
0
 20
-240
 10
100
 20
-240
 10
100
 20
-140
 10
0
 20
-140
  0
LINE
  5
11D
100
AcDbEntity
  8
0
  6
ByLayer
 62
  256
370
   -1
100
AcDbLine
 10
100
 20
-140
 11
0
 21
-240
  0
LINE
  5
11E
100
AcDbEntity
  8
0
  6
ByLayer
 62
  256
370
   -1
100
AcDbLine
 10
0
 20
-140
 11
100
 21
-240
  0
LINE
  5
11F
100
AcDbEntity
  8
0
  6
ByLayer
 62
  256
370
   -1
100
AcDbLine
 10
50
 20
-190
 11
100
 21
-190
  0
LINE
  5
120
100
AcDbEntity
  8
0
  6
ByLayer
 62
  256
370
   -1
100
AcDbLine
 10
50
 20
-190
 11
0
 21
-190
  0
LINE
  5
121
100
AcDbEntity
  8
0
  6
ByLayer
 62
  256
370
   -1
100
AcDbLine
 10
50
 20
-190
 11
50
 21
-240
  0
CIRCLE
  5
122
100
AcDbEntity
  8
CORTAR
  6
ByLayer
 62
  256
370
   -1
100
AcDbCircle
 10
50
 20
-190
 40
50
  0
LINE
  5
123
100
AcDbEntity
  8
0
  6
ByLayer
 62
  256
370
   -1
100
AcDbLine
 10
49.99999999999989
 20
-189.9999971676753
 11
50.00000314702731
 21
-239.9999971676752
  0
ARC
  5
124
100
AcDbEntity
  8
GRABAR
  6
ByLayer
 62
  256
370
   -1
100
AcDbCircle
 10
49.99999999999989
 20
-189.9999971676753
 40
45
100
AcDbArc
 50
295.8419291569398
 51
295.8419363693948
  0
CIRCLE
  5
125
100
AcDbEntity
  8
GRABAR
  6
ByLayer
 62
  256
370
   -1
100
AcDbCircle
 10
50
 20
-190
 40
45
  0
ARC
  5
126
100
AcDbEntity
  8
GRABAR
  6
ByLayer
 62
  256
370
   -1
100
AcDbCircle
 10
49.99999716767533
 20
-190.0000000000001
 40
45
100
AcDbArc
 50
25.84192915693986
 51
25.84193636939485
  0
LINE
  5
127
100
AcDbEntity
  8
0
  6
ByLayer
 62
  256
370
   -1
100
AcDbLine
 10
50
 20
-190
 11
5.000000000000057
 21
-190
  0
ARC
  5
128
100
AcDbEntity
  8
GRABAR
  6
ByLayer
 62
  256
370
   -1
100
AcDbCircle
 10
27.50000000000003
 20
-190
 40
17.5
100
AcDbArc
 50
20.38640234702134
 51
69.61359765298266
  0
ARC
  5
129
100
AcDbEntity
  8
GRABAR
  6
ByLayer
 62
  256
370
   -1
100
AcDbCircle
 10
27.50000000000003
 20
-190
 40
17.5
100
AcDbArc
 50
1.849068887958875
 51
20.38640234702134
  0
LINE
  5
12A
100
AcDbEntity
  8
0
  6
ByLayer
 62
  256
370
   -1
100
AcDbLine
 10
50
 20
-190
 11
49.99999999999999
 21
-189.9999981460189
  0
ARC
  5
12B
100
AcDbEntity
  8
GRABAR
  6
ByLayer
 62
  256
370
   -1
100
AcDbCircle
 10
72.49999999999997
 20
-190
 40
17.5
100
AcDbArc
 50
110.3864023470213
 51
159.6135976529785
  0
ARC
  5
12C
100
AcDbEntity
  8
GRABAR
  6
ByLayer
 62
  256
370
   -1
100
AcDbCircle
 10
72.49999999999997
 20
-190
 40
17.5
100
AcDbArc
 50
159.6135976529785
 51
178.1509311120411
  0
ARC
  5
12D
100
AcDbEntity
  8
GRABAR
  6
ByLayer
 62
  256
370
   -1
100
AcDbCircle
 10
72.49999999999997
 20
-190
 40
22.49999999999994
100
AcDbArc
 50
102.8633890729411
 51
167.136610927059
  0
LINE
  5
12E
100
AcDbEntity
  8
0
  6
ByLayer
 62
  256
370
   -1
100
AcDbLine
 10
49.99999999999999
 20
-189.9999981460189
 11
49.99999999999999
 21
-189.9999973400548
  0
LINE
  5
12F
100
AcDbEntity
  8
0
  6
ByLayer
 62
  256
370
   -1
100
AcDbLine
 10
49.99999999999999
 20
-189.9999973400548
 11
49.99999999999999
 21
-145.0000000000001
  0
ARC
  5
130
100
AcDbEntity
  8
GRABAR
  6
ByLayer
 62
  256
370
   -1
100
AcDbCircle
 10
27.50000000000003
 20
-190
 40
17.5
100
AcDbArc
 50
88.15093111204116
 51
271.8490688879588
  0
ARC
  5
131
100
AcDbEntity
  8
GRABAR
  6
ByLayer
 62
  256
370
   -1
100
AcDbCircle
 10
27.50000000000003
 20
-190
 40
17.5
100
AcDbArc
 50
290.3864023470184
 51
1.849068887958875
  0
ARC
  5
132
100
AcDbEntity
  8
GRABAR
  6
ByLayer
 62
  256
370
   -1
100
AcDbCircle
 10
27.50000000000003
 20
-190
 40
22.49999999999994
100
AcDbArc
 50
89.99999999999993
 51
269.9999999999991
  0
ARC
  5
133
100
AcDbEntity
  8
GRABAR
  6
ByLayer
 62
  256
370
   -1
100
AcDbCircle
 10
27.50000000000003
 20
-190
 40
22.49999999999994
100
AcDbArc
 50
282.8633890729411
 51
77.13661092705888
  0
ARC
  5
134
100
AcDbEntity
  8
GRABAR
  6
ByLayer
 62
  256
370
   -1
100
AcDbCircle
 10
72.49999999999997
 20
-190
 40
22.49999999999994
100
AcDbArc
 50
167.136610927059
 51
257.1366109270589
  0
ARC
  5
135
100
AcDbEntity
  8
GRABAR
  6
ByLayer
 62
  256
370
   -1
100
AcDbCircle
 10
72.49999999999997
 20
-190
 40
22.49999999999994
100
AcDbArc
 50
270.0000000000017
 51
89.99999999999994
  0
ARC
  5
136
100
AcDbEntity
  8
GRABAR
  6
ByLayer
 62
  256
370
   -1
100
AcDbCircle
 10
72.49999999999997
 20
-190
 40
17.5
100
AcDbArc
 50
178.1509311120411
 51
249.6135976529846
  0
ARC
  5
137
100
AcDbEntity
  8
GRABAR
  6
ByLayer
 62
  256
370
   -1
100
AcDbCircle
 10
72.49999999999997
 20
-190
 40
17.5
100
AcDbArc
 50
268.1509311120411
 51
91.84906888795888
  0
ARC
  5
138
100
AcDbEntity
  8
GRABAR
  6
ByLayer
 62
  256
370
   -1
100
AcDbCircle
 10
50
 20
-212.5
 40
17.5
100
AcDbArc
 50
88.15093111204116
 51
91.84906888795888
  0
ARC
  5
139
100
AcDbEntity
  8
GRABAR
  6
ByLayer
 62
  256
370
   -1
100
AcDbCircle
 10
50
 20
-212.5
 40
17.5
100
AcDbArc
 50
110.3864023470213
 51
69.6135976529787
  0
ARC
  5
13A
100
AcDbEntity
  8
GRABAR
  6
ByLayer
 62
  256
370
   -1
100
AcDbCircle
 10
50
 20
-212.5
 40
22.49999999999994
100
AcDbArc
 50
102.8633890729411
 51
437.1366109270589
  0
ARC
  5
13B
100
AcDbEntity
  8
GRABAR
  6
ByLayer
 62
  256
370
   -1
100
AcDbCircle
 10
50
 20
-167.5
 40
17.5
100
AcDbArc
 50
290.3864023470245
 51
609.6135976529829
  0
ARC
  5
13C
100
AcDbEntity
  8
GRABAR
  6
ByLayer
 62
  256
370
   -1
100
AcDbCircle
 10
50
 20
-167.5
 40
22.49999999999994
100
AcDbArc
 50
282.8633890729411
 51
617.1366109270589
  0
LWPOLYLINE
  5
13D
100
AcDbEntity
  8
0
  6
ByLayer
 62
  256
370
   -1
100
AcDbPolyline
 90
    4
 70
    1
 43
0
 10
120
 20
-240
 10
220
 20
-240
 10
220
 20
-140
 10
120
 20
-140
  0
LINE
  5
13E
100
AcDbEntity
  8
0
  6
ByLayer
 62
  256
370
   -1
100
AcDbLine
 10
220
 20
-140
 11
120
 21
-240
  0
LINE
  5
13F
100
AcDbEntity
  8
0
  6
ByLayer
 62
  256
370
   -1
100
AcDbLine
 10
120
 20
-140
 11
220
 21
-240
  0
LINE
  5
140
100
AcDbEntity
  8
0
  6
ByLayer
 62
  256
370
   -1
100
AcDbLine
 10
170
 20
-190
 11
220
 21
-190
  0
LINE
  5
141
100
AcDbEntity
  8
0
  6
ByLayer
 62
  256
370
   -1
100
AcDbLine
 10
170
 20
-190
 11
170
 21
-240
  0
CIRCLE
  5
142
100
AcDbEntity
  8
CORTAR
  6
ByLayer
 62
  256
370
   -1
100
AcDbCircle
 10
170
 20
-190
 40
50
  0
CIRCLE
  5
143
100
AcDbEntity
  8
GRABAR
  6
ByLayer
 62
  256
370
   -1
100
AcDbCircle
 10
170
 20
-190
 40
45
  0
LINE
  5
144
100
AcDbEntity
  8
0
  6
ByLayer
 62
  256
370
   -1
100
AcDbLine
 10
170
 20
-190
 11
125.0000000000001
 21
-190
  0
LINE
  5
145
100
AcDbEntity
  8
0
  6
ByLayer
 62
  256
370
   -1
100
AcDbLine
 10
170
 20
-189.9999973400548
 11
170
 21
-145.0000000000001
  0
CIRCLE
  5
146
100
AcDbEntity
  8
GRABAR
  6
ByLayer
 62
  256
370
   -1
100
AcDbCircle
 10
170
 20
-190
 40
15
  0
CIRCLE
  5
147
100
AcDbEntity
  8
0
  6
ByLayer
 62
  256
370
   -1
100
AcDbCircle
 10
170
 20
-190
 40
30
  0
CIRCLE
  5
148
100
AcDbEntity
  8
GRABAR
  6
ByLayer
 62
  256
370
   -1
100
AcDbCircle
 10
200
 20
-190
 40
15
  0
CIRCLE
  5
149
100
AcDbEntity
  8
GRABAR
  6
ByLayer
 62
  256
370
   -1
100
AcDbCircle
 10
140
 20
-190
 40
15
  0
CIRCLE
  5
14A
100
AcDbEntity
  8
GRABAR
  6
ByLayer
 62
  256
370
   -1
100
AcDbCircle
 10
185
 20
-164.0192378864668
 40
15
  0
CIRCLE
  5
14B
100
AcDbEntity
  8
GRABAR
  6
ByLayer
 62
  256
370
   -1
100
AcDbCircle
 10
155
 20
-215.9807621135332
 40
15
  0
CIRCLE
  5
14C
100
AcDbEntity
  8
GRABAR
  6
ByLayer
 62
  256
370
   -1
100
AcDbCircle
 10
155
 20
-164.0192378864668
 40
15
  0
CIRCLE
  5
14D
100
AcDbEntity
  8
GRABAR
  6
ByLayer
 62
  256
370
   -1
100
AcDbCircle
 10
185
 20
-215.9807621135332
 40
15
  0
DIMENSION
  5
14E
100
AcDbEntity
  8
COTAS
  6
ByLayer
 62
  256
370
   -1
100
AcDbDimension
  2
*D1
 10
25
 20
50
 30
0
 11
26.39754248593737
 21
63.276653616405
 31
0
 70
   36
 71
    5
  3
Standard
 53
0
210
0
220
0
230
1
100
AcDbRadialDimension
 15
36.18033988749895
 25
72.36067977499789
 35
0
 40
0
  0
DIMENSION
  5
14F
100
AcDbEntity
  8
COTAS
  6
ByLayer
 62
  256
370
   -1
100
AcDbDimension
  2
*D2
 10
75
 20
50
 30
0
 11
67.42076171761458
 21
39.01010449054116
 31
0
 70
   36
 71
    5
  3
Standard
 53
0
210
0
220
0
230
1
100
AcDbRadialDimension
 15
68.93660937409167
 25
25.7464374963667
 35
0
 40
0
  0
DIMENSION
  5
150
100
AcDbEntity
  8
COTAS
  6
ByLayer
 62
  256
370
   -1
100
AcDbDimension
  2
*D3
 10
145
 20
50
 30
0
 11
145.7530367556585
 21
63.32875057515247
 31
0
 70
   36
 71
    5
  3
Standard
 53
0
210
0
220
0
230
1
100
AcDbRadialDimension
 15
137.5562832481777
 25
73.86610736837156
 35
0
 40
0
  0
DIMENSION
  5
151
100
AcDbEntity
  8
COTAS
  6
ByLayer
 62
  256
370
   -1
100
AcDbDimension
  2
*D4
 10
169.9999953888152
 20
74.99999538881518
 30
0
 11
181.3170394800041
 21
82.0814619945464
 31
0
 70
   36
 71
    5
  3
Standard
 53
0
210
0
220
0
230
1
100
AcDbRadialDimension
 15
194.499886357956
 25
79.97546948684985
 35
0
 40
0
  0
DIMENSION
  5
152
100
AcDbEntity
  8
COTAS
  6
ByLayer
 62
  256
370
   -1
100
AcDbDimension
  2
*D5
 10
195
 20
50
 30
0
 11
183.3347532208948
 21
43.5081070686142
 31
0
 70
   36
 71
    5
  3
Standard
 53
0
210
0
220
0
230
1
100
AcDbRadialDimension
 15
178.8145105887816
 25
30.94665560802151
 35
0
 40
0
  0
DIMENSION
  5
153
100
AcDbEntity
  8
COTAS
  6
ByLayer
 62
  256
370
   -1
100
AcDbDimension
  2
*D6
 10
169.9999953888152
 20
24.99999538881518
 30
0
 11
160.2343775088995
 21
34.10248755708817
 31
0
 70
   36
 71
    5
  3
Standard
 53
0
210
0
220
0
230
1
100
AcDbRadialDimension
 15
146.8915198722904
 25
34.53930140666436
 35
0
 40
0
  0
DIMENSION
  5
154
100
AcDbEntity
  8
COTAS
  6
ByLayer
 62
  256
370
   -1
100
AcDbDimension
  2
*D7
 10
12.5
 20
-70
 30
0
 11
24.86769035138888
 21
-47.18934841680426
 31
0
 70
   36
 71
    5
  3
Standard
 53
0
210
0
220
0
230
1
100
AcDbRadialDimension
 15
20.34508646059768
 25
-60.26837020711602
 35
0
 40
0
  0
DIMENSION
  5
155
100
AcDbEntity
  8
COTAS
  6
ByLayer
 62
  256
370
   -1
100
AcDbDimension
  2
*D8
 10
25
 20
-69.99999961646496
 30
0
 11
30.01680799613146
 21
-57.62848823830459
 31
0
 70
   36
 71
    5
  3
Standard
 53
0
210
0
220
0
230
1
100
AcDbRadialDimension
 15
41.93128725556883
 25
-51.60620958098254
 35
0
 40
0
  0
DIMENSION
  5
156
100
AcDbEntity
  8
COTAS
  6
ByLayer
 62
  256
370
   -1
100
AcDbDimension
  2
*D9
 10
37.5
 20
-70
 30
0
 11
44.41585584233871
 21
-51.95267071785996
 31
0
 70
   36
 71
    5
  3
Standard
 53
0
210
0
220
0
230
1
100
AcDbRadialDimension
 15
59.01094242423289
 25
-39.28307704177814
 35
0
 40
0
  0
DIMENSION
  5
157
100
AcDbEntity
  8
COTAS
  6
ByLayer
 62
  256
370
   -1
100
AcDbDimension
  2
*D10
 10
87.50000096768235
 20
-70.00000072576177
 30
0
 11
99.1068950034451
 21
-46.79298452116616
 31
0
 70
   36
 71
    5
  3
Standard
 53
0
210
0
220
0
230
1
100
AcDbRadialDimension
 15
95.01910769058706
 25
-60.01435932975873
 35
0
 40
0
  0
DIMENSION
  5
158
100
AcDbEntity
  8
COTAS
  6
ByLayer
 62
  256
370
   -1
100
AcDbDimension
  2
*D11
 10
75.00000096768235
 20
-70.00000086737619
 30
0
 11
63.29704177088011
 21
-76.42366043867834
 31
0
 70
   36
 71
    5
  3
Standard
 53
0
210
0
220
0
230
1
100
AcDbRadialDimension
 15
58.70351990236477
 25
-88.9585004094746
 35
0
 40
0
  0
DIMENSION
  5
159
100
AcDbEntity
  8
COTAS
  6
ByLayer
 62
  256
370
   -1
100
AcDbDimension
  2
*D12
 10
62.50000096768235
 20
-70.00000024192059
 30
0
 11
46.39816278911677
 21
-80.68952612108323
 31
0
 70
   36
 71
    5
  3
Standard
 53
0
210
0
220
0
230
1
100
AcDbRadialDimension
 15
37.22102363351781
 25
-97.69879633378703
 35
0
 40
0
  0
DIMENSION
  5
15A
100
AcDbEntity
  8
COTAS
  6
ByLayer
 62
  256
370
   -1
100
AcDbDimension
  2
*D13
 10
170
 20
-45
 30
0
 11
161.2581896659026
 21
-34.91023249362659
 31
0
 70
   36
 71
    5
  3
Standard
 53
0
210
0
220
0
230
1
100
AcDbRadialDimension
 15
148.0375265332824
 25
-33.0563925372723
 35
0
 40
0
  0
DIMENSION
  5
15B
100
AcDbEntity
  8
COTAS
  6
ByLayer
 62
  256
370
   -1
100
AcDbDimension
  2
*D14
 10
170
 20
-45
 30
0
 11
190.1654806024668
 21
-22.20751137942441
 31
0
 70
   36
 71
    5
  3
Standard
 53
0
210
0
220
0
230
1
100
AcDbRadialDimension
 15
185.4015893224852
 25
-32.24104054628634
 35
0
 40
0
  0
DIMENSION
  5
15C
100
AcDbEntity
  8
COTAS
  6
ByLayer
 62
  256
370
   -1
100
AcDbDimension
  2
*D15
 10
50
 20
-167.5
 30
0
 11
72.86278052018739
 21
-146.7445864773341
 31
0
 70
   36
 71
    5
  3
Standard
 53
0
210
0
220
0
230
1
100
AcDbRadialDimension
 15
64.59258067866547
 25
-157.8404664120549
 35
0
 40
0
  0
DIMENSION
  5
15D
100
AcDbEntity
  8
COTAS
  6
ByLayer
 62
  256
370
   -1
100
AcDbDimension
  2
*D16
 10
72.49999999999997
 20
-190
 30
0
 11
98.38382367767139
 21
-164.2406003060081
 31
0
 70
   36
 71
    5
  3
Standard
 53
0
210
0
220
0
230
1
100
AcDbRadialDimension
 15
90.35357660637169
 25
-176.3069432791501
 35
0
 40
0
  0
DIMENSION
  5
15E
100
AcDbEntity
  8
COTAS
  6
ByLayer
 62
  256
370
   -1
100
AcDbDimension
  2
*D17
 10
170
 20
-70
 30
0
 11
187.5090165351094
 21
-55.1118504768636
 31
0
 70
   36
 71
    5
  3
Standard
 53
0
210
0
220
0
230
1
100
AcDbRadialDimension
 15
209.5067270116451
 25
-48.45426908115326
 35
0
 40
0
  0
DIMENSION
  5
15F
100
AcDbEntity
  8
COTAS
  6
ByLayer
 62
  256
370
   -1
100
AcDbDimension
  2
*D18
 10
170
 20
-70
 30
0
 11
148.5507647594202
 21
-56.32875412245573
 31
0
 70
   36
 71
    5
  3
Standard
 53
0
210
0
220
0
230
1
100
AcDbRadialDimension
 15
123.6058564248261
 25
-51.35641016525656
 35
0
 40
0
  0
DIMENSION
  5
160
100
AcDbEntity
  8
COTAS
  6
ByLayer
 62
  256
370
   -1
100
AcDbDimension
  2
*D19
 10
50
 20
-70
 30
0
 11
61.62963145708802
 21
-47.37867536101591
 31
0
 70
   36
 71
    5
  3
Standard
 53
0
210
0
220
0
230
1
100
AcDbRadialDimension
 15
80.66422064668507
 25
-30.50689209328527
 35
0
 40
0
  0
DIMENSION
  5
161
100
AcDbEntity
  8
COTAS
  6
ByLayer
 62
  256
370
   -1
100
AcDbDimension
  2
*D20
 10
50
 20
50
 30
0
 11
65.19871367136642
 21
70.39538572780177
 31
0
 70
   36
 71
    5
  3
Standard
 53
0
210
0
220
0
230
1
100
AcDbRadialDimension
 15
86.753578979655
 25
83.89947539691819
 35
0
 40
0
  0
DIMENSION
  5
162
100
AcDbEntity
  8
COTAS
  6
ByLayer
 62
  256
370
   -1
100
AcDbDimension
  2
*D21
 10
170
 20
-190
 30
0
 11
186.4192423572594
 21
-171.3849050052494
 31
0
 70
   36
 71
    5
  3
Standard
 53
0
210
0
220
0
230
1
100
AcDbRadialDimension
 15
181.8682060202566
 25
-180.8269042378952
 35
0
 40
0
  0
DIMENSION
  5
163
100
AcDbEntity
  8
COTAS
  6
ByLayer
 62
  256
370
   -1
100
AcDbDimension
  2
*D22
 10
170
 20
-190
 30
0
 11
151.8750614889994
 21
-175.8681473181168
 31
0
 70
   36
 71
    5
  3
Standard
 53
0
210
0
220
0
230
1
100
AcDbRadialDimension
 15
129.6146858430539
 25
-170.1499017522641
 35
0
 40
0
  0
DIMENSION
  5
164
100
AcDbEntity
  8
COTAS
  6
ByLayer
 62
  256
370
   -1
100
AcDbDimension
  2
*D23
 10
170
 20
-190
 30
0
 11
144.621725398453
 21
-191.7075814763804
 31
0
 70
   36
 71
    5
  3
Standard
 53
0
210
0
220
0
230
1
100
AcDbRadialDimension
 15
121.5858536820396
 25
-202.4928153873784
 35
0
 40
0
  0
DIMENSION
  5
165
100
AcDbEntity
  8
COTAS
  6
ByLayer
 62
  256
370
   -1
100
AcDbDimension
  2
*D24
 10
200
 20
-190
 30
0
 11
218.533447912226
 21
-173.4886526977712
 31
0
 70
   36
 71
    5
  3
Standard
 53
0
210
0
220
0
230
1
100
AcDbRadialDimension
 15
212.8827704931016
 25
-182.3166267549942
 35
0
 40
0
  0
ENDSEC
  0
SECTION
  2
OBJECTS
  0
DICTIONARY
  5
C
330
0
100
AcDbDictionary
281
    1
  3
ACAD_GROUP
350
D
  0
DICTIONARY
  5
D
330
C
100
AcDbDictionary
281
    1
  0
ENDSEC
  0
EOF
